  0
SECTION
  2
HEADER
  9
$ACADVER
  1
AC1015
  9
$ACADMAINTVER
 70
     6
  9
$DWGCODEPAGE
  3
ANSI_932
  9
$INSBASE
 10
0.0
 20
0.0
 30
0.0
  9
$EXTMIN
 10
0.0
 20
0.0
 30
0.0
  9
$EXTMAX
 10
412.3526198775281
 20
292.6392256760024
 30
0.0
  9
$LIMMIN
 10
0.0
 20
0.0
  9
$LIMMAX
 10
420.0
 20
297.0
  9
$ORTHOMODE
 70
     0
  9
$REGENMODE
 70
     1
  9
$FILLMODE
 70
     1
  9
$QTEXTMODE
 70
     0
  9
$MIRRTEXT
 70
     1
  9
$LTSCALE
 40
0.25
  9
$ATTMODE
 70
     1
  9
$TEXTSIZE
 40
5.0
  9
$TRACEWID
 40
0.05
  9
$TEXTSTYLE
  7
Standard
  9
$CLAYER
  8
0
  9
$CELTYPE
  6
ByLayer
  9
$CECOLOR
 62
   256
  9
$CELTSCALE
 40
1.0
  9
$DISPSILH
 70
     0
  9
$DIMSCALE
 40
1.0
  9
$DIMASZ
 40
2.0
  9
$DIMEXO
 40
2.0
  9
$DIMDLI
 40
10.0
  9
$DIMRND
 40
0.0
  9
$DIMDLE
 40
0.0
  9
$DIMEXE
 40
0.0
  9
$DIMTP
 40
0.0
  9
$DIMTM
 40
0.0
  9
$DIMTXT
 40
3.0
  9
$DIMCEN
 40
0.09
  9
$DIMTSZ
 40
0.0
  9
$DIMTOL
 70
     0
  9
$DIMLIM
 70
     0
  9
$DIMTIH
 70
     0
  9
$DIMTOH
 70
     0
  9
$DIMSE1
 70
     0
  9
$DIMSE2
 70
     0
  9
$DIMTAD
 70
     3
  9
$DIMZIN
 70
     8
  9
$DIMBLK
  1

  9
$DIMASO
 70
     1
  9
$DIMSHO
 70
     1
  9
$DIMPOST
  1

  9
$DIMAPOST
  1

  9
$DIMALT
 70
     0
  9
$DIMALTD
 70
     2
  9
$DIMALTF
 40
25.4
  9
$DIMLFAC
 40
1.0
  9
$DIMTOFL
 70
     1
  9
$DIMTVP
 40
0.7
  9
$DIMTIX
 70
     0
  9
$DIMSOXD
 70
     0
  9
$DIMSAH
 70
     0
  9
$DIMBLK1
  1

  9
$DIMBLK2
  1

  9
$DIMSTYLE
  2
Standard
  9
$DIMCLRD
 70
     0
  9
$DIMCLRE
 70
     0
  9
$DIMCLRT
 70
     0
  9
$DIMTFAC
 40
0.5
  9
$DIMGAP
 40
0.09
  9
$DIMJUST
 70
     0
  9
$DIMSD1
 70
     0
  9
$DIMSD2
 70
     0
  9
$DIMTOLJ
 70
     1
  9
$DIMTZIN
 70
     8
  9
$DIMALTZ
 70
     0
  9
$DIMALTTZ
 70
     0
  9
$DIMUPT
 70
     1
  9
$DIMDEC
 70
     2
  9
$DIMTDEC
 70
     4
  9
$DIMALTU
 70
     2
  9
$DIMALTTD
 70
     2
  9
$DIMTXSTY
  7
Standard
  9
$DIMAUNIT
 70
     0
  9
$DIMADEC
 70
     0
  9
$DIMALTRND
 40
0.0
  9
$DIMAZIN
 70
     0
  9
$DIMDSEP
 70
    46
  9
$DIMATFIT
 70
     2
  9
$DIMFRAC
 70
     0
  9
$DIMLDRBLK
  1

  9
$DIMLUNIT
 70
     2
  9
$DIMLWD
 70
    -2
  9
$DIMLWE
 70
    -2
  9
$DIMTMOVE
 70
     2
  9
$LUNITS
 70
     2
  9
$LUPREC
 70
     4
  9
$SKETCHINC
 40
0.1
  9
$FILLETRAD
 40
0.5
  9
$AUNITS
 70
     0
  9
$AUPREC
 70
     0
  9
$MENU
  1
.
  9
$ELEVATION
 40
0.0
  9
$PELEVATION
 40
0.0
  9
$THICKNESS
 40
0.0
  9
$LIMCHECK
 70
     0
  9
$CHAMFERA
 40
0.0
  9
$CHAMFERB
 40
0.0
  9
$CHAMFERC
 40
0.0
  9
$CHAMFERD
 40
0.0
  9
$SKPOLY
 70
     0
  9
$TDCREATE
 40
2460207.85224537
  9
$TDUCREATE
 40
2460207.47724537
  9
$TDUPDATE
 40
2460207.477255394
  9
$TDUUPDATE
 40
2460207.102255394
  9
$TDINDWG
 40
0.0000000116
  9
$TDUSRTIMER
 40
0.0000000116
  9
$USRTIMER
 70
     1
  9
$ANGBASE
 50
0.0
  9
$ANGDIR
 70
     0
  9
$PDMODE
 70
     0
  9
$PDSIZE
 40
0.0
  9
$PLINEWID
 40
0.0
  9
$SPLFRAME
 70
     0
  9
$SPLINETYPE
 70
     6
  9
$SPLINESEGS
 70
     8
  9
$HANDSEED
  5
3D3
  9
$SURFTAB1
 70
     6
  9
$SURFTAB2
 70
     6
  9
$SURFTYPE
 70
     6
  9
$SURFU
 70
     6
  9
$SURFV
 70
     6
  9
$UCSBASE
  2

  9
$UCSNAME
  2

  9
$UCSORG
 10
0.0
 20
0.0
 30
0.0
  9
$UCSXDIR
 10
1.0
 20
0.0
 30
0.0
  9
$UCSYDIR
 10
0.0
 20
1.0
 30
0.0
  9
$UCSORTHOREF
  2

  9
$UCSORTHOVIEW
 70
     0
  9
$UCSORGTOP
 10
0.0
 20
0.0
 30
0.0
  9
$UCSORGBOTTOM
 10
0.0
 20
0.0
 30
0.0
  9
$UCSORGLEFT
 10
0.0
 20
0.0
 30
0.0
  9
$UCSORGRIGHT
 10
0.0
 20
0.0
 30
0.0
  9
$UCSORGFRONT
 10
0.0
 20
0.0
 30
0.0
  9
$UCSORGBACK
 10
0.0
 20
0.0
 30
0.0
  9
$PUCSBASE
  2

  9
$PUCSNAME
  2

  9
$PUCSORG
 10
0.0
 20
0.0
 30
0.0
  9
$PUCSXDIR
 10
1.0
 20
0.0
 30
0.0
  9
$PUCSYDIR
 10
0.0
 20
1.0
 30
0.0
  9
$PUCSORTHOREF
  2

  9
$PUCSORTHOVIEW
 70
     0
  9
$PUCSORGTOP
 10
0.0
 20
0.0
 30
0.0
  9
$PUCSORGBOTTOM
 10
0.0
 20
0.0
 30
0.0
  9
$PUCSORGLEFT
 10
0.0
 20
0.0
 30
0.0
  9
$PUCSORGRIGHT
 10
0.0
 20
0.0
 30
0.0
  9
$PUCSORGFRONT
 10
0.0
 20
0.0
 30
0.0
  9
$PUCSORGBACK
 10
0.0
 20
0.0
 30
0.0
  9
$USERI1
 70
     0
  9
$USERI2
 70
     0
  9
$USERI3
 70
     0
  9
$USERI4
 70
     0
  9
$USERI5
 70
     0
  9
$USERR1
 40
0.0
  9
$USERR2
 40
0.0
  9
$USERR3
 40
0.0
  9
$USERR4
 40
0.0
  9
$USERR5
 40
0.0
  9
$WORLDVIEW
 70
     1
  9
$SHADEDGE
 70
     3
  9
$SHADEDIF
 70
    70
  9
$TILEMODE
 70
     1
  9
$MAXACTVP
 70
    64
  9
$PINSBASE
 10
0.0
 20
0.0
 30
0.0
  9
$PLIMCHECK
 70
     0
  9
$PEXTMIN
 10
0.0
 20
0.0
 30
0.0
  9
$PEXTMAX
 10
420.0
 20
297.0
 30
0.0
  9
$PLIMMIN
 10
0.0
 20
0.0
  9
$PLIMMAX
 10
420.0
 20
297.0
  9
$UNITMODE
 70
     0
  9
$VISRETAIN
 70
     1
  9
$PLINEGEN
 70
     0
  9
$PSLTSCALE
 70
     1
  9
$TREEDEPTH
 70
  3020
  9
$CMLSTYLE
  2
Standard
  9
$CMLJUST
 70
     0
  9
$CMLSCALE
 40
1.0
  9
$PROXYGRAPHICS
 70
     1
  9
$MEASUREMENT
 70
     1
  9
$CELWEIGHT
370
    -1
  9
$ENDCAPS
280
     0
  9
$JOINSTYLE
280
     0
  9
$LWDISPLAY
290
     0
  9
$INSUNITS
 70
     4
  9
$HYPERLINKBASE
  1

  9
$STYLESHEET
  1

  9
$XEDIT
290
     1
  9
$CEPSNTYPE
380
     0
  9
$PSTYLEMODE
290
     1
  9
$FINGERPRINTGUID
  2
{5b8a6163-c56e-413e-bf63-b0401c031e3e}
  9
$VERSIONGUID
  2
{FAEB1C32-E019-11D5-929B-00C0DF256EC4}
  9
$EXTNAMES
290
     1
  9
$PSVPSCALE
 40
0.0
  9
$OLESTARTUP
290
     0
  0
ENDSEC
  0
SECTION
  2
CLASSES
  0
CLASS
  1
ACDBDICTIONARYWDFLT
  2
AcDbDictionaryWithDefault
  3
ObjectDBX Classes
 90
        0
280
     0
281
     0
  0
CLASS
  1
VISUALSTYLE
  2
AcDbVisualStyle
  3
ObjectDBX Classes
 90
     4095
280
     0
281
     0
  0
CLASS
  1
MATERIAL
  2
AcDbMaterial
  3
ObjectDBX Classes
 90
     1153
280
     0
281
     0
  0
CLASS
  1
SCALE
  2
AcDbScale
  3
ObjectDBX Classes
 90
     1153
280
     0
281
     0
  0
CLASS
  1
TABLESTYLE
  2
AcDbTableStyle
  3
ObjectDBX Classes
 90
     4095
280
     0
281
     0
  0
CLASS
  1
MLEADERSTYLE
  2
AcDbMLeaderStyle
  3
ACDB_MLEADERSTYLE_CLASS
 90
     4095
280
     0
281
     0
  0
CLASS
  1
SUN
  2
AcDbSun
  3
SCENEOE
 90
     1153
280
     0
281
     0
  0
CLASS
  1
DICTIONARYVAR
  2
AcDbDictionaryVar
  3
ObjectDBX Classes
 90
        0
280
     0
281
     0
  0
CLASS
  1
ACDBPLACEHOLDER
  2
AcDbPlaceHolder
  3
ObjectDBX Classes
 90
        0
280
     0
281
     0
  0
CLASS
  1
LAYOUT
  2
AcDbLayout
  3
ObjectDBX Classes
 90
        0
280
     0
281
     0
  0
ENDSEC
  0
SECTION
  2
TABLES
  0
TABLE
  2
VPORT
  5
8
102
{ACAD_XDICTIONARY
360
396
102
}
330
0
100
AcDbSymbolTable
 70
     1
  0
VPORT
  5
29
330
8
100
AcDbSymbolTableRecord
100
AcDbViewportTableRecord
  2
*Active
 70
     0
 10
0.0
 20
0.0
 11
1.0
 21
1.0
 12
10.42990654205607
 22
4.5
 13
0.0
 23
0.0
 14
0.5
 24
0.5
 15
0.5
 25
0.5
 16
0.0
 26
0.0
 36
1.0
 17
0.0
 27
0.0
 37
0.0
 40
9.0
 41
1.972972972850329
 42
50.0
 43
0.0
 44
0.0
 50
0.0
 51
0.0
 71
     0
 72
   100
 73
     1
 74
     3
 75
     0
 76
     0
 77
     0
 78
     0
281
     0
 65
     1
110
0.0
120
0.0
130
0.0
111
1.0
121
0.0
131
0.0
112
0.0
122
1.0
132
0.0
 79
     0
146
0.0
  0
ENDTAB
  0
TABLE
  2
LTYPE
  5
5
330
0
100
AcDbSymbolTable
 70
     9
  0
LTYPE
  5
14
330
5
100
AcDbSymbolTableRecord
100
AcDbLinetypeTableRecord
  2
ByBlock
 70
     0
  3

 72
    65
 73
     0
 40
0.0
  0
LTYPE
  5
15
330
5
100
AcDbSymbolTableRecord
100
AcDbLinetypeTableRecord
  2
ByLayer
 70
     0
  3

 72
    65
 73
     0
 40
0.0
  0
LTYPE
  5
16
330
5
100
AcDbSymbolTableRecord
100
AcDbLinetypeTableRecord
  2
Continuous
 70
     0
  3
Solid line
 72
    65
 73
     0
 40
0.0
  0
LTYPE
  5
BC
330
5
100
AcDbSymbolTableRecord
100
AcDbLinetypeTableRecord
  2
DOT
 70
     0
  3
DOT
 72
    65
 73
     2
 40
4.0
 49
6.0
 74
     0
 49
-2.0
 74
     0
  0
LTYPE
  5
BD
330
5
100
AcDbSymbolTableRecord
100
AcDbLinetypeTableRecord
  2
HIDDEN
 70
     0
  3
HIDDEN
 72
    65
 73
     2
 40
4.2
 49
8.4
 74
     0
 49
-4.2
 74
     0
  0
LTYPE
  5
BE
330
5
100
AcDbSymbolTableRecord
100
AcDbLinetypeTableRecord
  2
DASHDOT
 70
     0
  3
DASHDOT
 72
    65
 73
     4
 40
14.5
 49
30.0
 74
     0
 49
-9.0
 74
     0
 49
2.5
 74
     0
 49
-9.0
 74
     0
  0
LTYPE
  5
BF
330
5
100
AcDbSymbolTableRecord
100
AcDbLinetypeTableRecord
  2
PHANTOM
 70
     0
  3
PHANTOM
 72
    65
 73
     6
 40
12.0
 49
30.0
 74
     0
 49
-9.0
 74
     0
 49
2.5
 74
     0
 49
-5.0
 74
     0
 49
2.5
 74
     0
 49
-9.0
 74
     0
  0
LTYPE
  5
C0
330
5
100
AcDbSymbolTableRecord
100
AcDbLinetypeTableRecord
  2
ACAD_ISO14W100
 70
     0
  3
ACAD_ISO14W100
 72
    65
 73
     8
 40
1.5
 49
12.0
 74
     0
 49
-3.0
 74
     0
 49
0.5
 74
     0
 49
-3.0
 74
     0
 49
0.5
 74
     0
 49
-3.0
 74
     0
 49
0.5
 74
     0
 49
-3.0
 74
     0
  0
LTYPE
  5
C1
330
5
100
AcDbSymbolTableRecord
100
AcDbLinetypeTableRecord
  2
ACAD_ISO06W100
 70
     0
  3
ACAD_ISO06W100
 72
    65
 73
     8
 40
13.5
 49
24.0
 74
     0
 49
-3.0
 74
     0
 49
0.5
 74
     0
 49
-3.0
 74
     0
 49
0.5
 74
     0
 49
-3.0
 74
     0
 49
0.5
 74
     0
 49
-3.0
 74
     0
  0
LTYPE
  5
C2
330
5
100
AcDbSymbolTableRecord
100
AcDbLinetypeTableRecord
  2
ACAD_ISO11W100
 70
     0
  3
ACAD_ISO11W100
 72
    65
 73
     6
 40
15.5
 49
12.0
 74
     0
 49
-3.0
 74
     0
 49
12.0
 74
     0
 49
-3.0
 74
     0
 49
0.5
 74
     0
 49
-3.0
 74
     0
  0
LTYPE
  5
C3
330
5
100
AcDbSymbolTableRecord
100
AcDbLinetypeTableRecord
  2
ACAD_ISO13W100
 70
     0
  3
ACAD_ISO13W100
 72
    65
 73
     8
 40
13.0
 49
12.0
 74
     0
 49
-3.0
 74
     0
 49
12.0
 74
     0
 49
-3.0
 74
     0
 49
0.5
 74
     0
 49
-3.0
 74
     0
 49
0.5
 74
     0
 49
-3.0
 74
     0
  0
ENDTAB
  0
TABLE
  2
LAYER
  5
2
330
0
100
AcDbSymbolTable
 70
    29
  0
LAYER
  5
10
330
2
100
AcDbSymbolTableRecord
100
AcDbLayerTableRecord
  2
0
 70
     0
 62
     7
  6
Continuous
370
    -3
390
F
  0
LAYER
  5
C4
330
2
100
AcDbSymbolTableRecord
100
AcDbLayerTableRecord
  2
1
 70
     0
 62
     7
  6
Continuous
370
    25
390
F
  0
LAYER
  5
C5
330
2
100
AcDbSymbolTableRecord
100
AcDbLayerTableRecord
  2
2
 70
     0
 62
   134
  6
Continuous
370
     9
390
F
  0
LAYER
  5
C6
330
2
100
AcDbSymbolTableRecord
100
AcDbLayerTableRecord
  2
3
 70
     0
 62
   214
  6
Continuous
370
    50
390
F
  0
LAYER
  5
C7
330
2
100
AcDbSymbolTableRecord
100
AcDbLayerTableRecord
  2
4
 70
     0
 62
     7
  6
Continuous
370
    25
390
F
  0
LAYER
  5
C8
330
2
100
AcDbSymbolTableRecord
100
AcDbLayerTableRecord
  2
5
 70
     0
 62
   142
  6
Continuous
370
     9
390
F
  0
LAYER
  5
C9
330
2
100
AcDbSymbolTableRecord
100
AcDbLayerTableRecord
  2
6
 70
     0
 62
   214
  6
Continuous
370
    50
390
F
  0
LAYER
  5
CA
330
2
100
AcDbSymbolTableRecord
100
AcDbLayerTableRecord
  2
7
 70
     0
 62
    54
  6
Continuous
370
    25
390
F
  0
LAYER
  5
CB
330
2
100
AcDbSymbolTableRecord
100
AcDbLayerTableRecord
  2
8
 70
     0
 62
   154
  6
Continuous
370
     9
390
F
  0
LAYER
  5
CC
330
2
100
AcDbSymbolTableRecord
100
AcDbLayerTableRecord
  2
9
 70
     0
 62
   142
  6
Continuous
370
     9
390
F
  0
LAYER
  5
CD
330
2
100
AcDbSymbolTableRecord
100
AcDbLayerTableRecord
  2
10
 70
     0
 62
   214
  6
Continuous
370
    50
390
F
  0
LAYER
  5
CE
330
2
100
AcDbSymbolTableRecord
100
AcDbLayerTableRecord
  2
11
 70
     0
 62
     7
  6
Continuous
370
    25
390
F
  0
LAYER
  5
CF
330
2
100
AcDbSymbolTableRecord
100
AcDbLayerTableRecord
  2
12
 70
     0
 62
    94
  6
Continuous
370
     9
390
F
  0
LAYER
  5
D0
330
2
100
AcDbSymbolTableRecord
100
AcDbLayerTableRecord
  2
13
 70
     0
 62
     7
  6
Continuous
370
     9
390
F
  0
LAYER
  5
D1
330
2
100
AcDbSymbolTableRecord
100
AcDbLayerTableRecord
  2
14
 70
     0
 62
     5
  6
Continuous
370
    25
390
F
  0
LAYER
  5
D2
330
2
100
AcDbSymbolTableRecord
100
AcDbLayerTableRecord
  2
15
 70
     0
 62
     6
  6
Continuous
370
     9
390
F
  0
LAYER
  5
D3
330
2
100
AcDbSymbolTableRecord
100
AcDbLayerTableRecord
  2
16
 70
     0
 62
    14
  6
Continuous
370
     9
390
F
  0
LAYER
  5
D4
330
2
100
AcDbSymbolTableRecord
100
AcDbLayerTableRecord
  2
17
 70
     0
 62
     1
  6
Continuous
370
     9
390
F
  0
LAYER
  5
D5
330
2
100
AcDbSymbolTableRecord
100
AcDbLayerTableRecord
  2
18
 70
     0
 62
   253
  6
Continuous
370
     9
390
F
  0
LAYER
  5
D6
330
2
100
AcDbSymbolTableRecord
100
AcDbLayerTableRecord
  2
19
 70
     0
 62
   174
  6
Continuous
370
     9
390
F
  0
LAYER
  5
D7
330
2
100
AcDbSymbolTableRecord
100
AcDbLayerTableRecord
  2
20
 70
     0
 62
    94
  6
Continuous
370
     9
390
F
  0
LAYER
  5
D8
330
2
100
AcDbSymbolTableRecord
100
AcDbLayerTableRecord
  2
22
 70
     0
 62
     4
  6
Continuous
370
     9
390
F
  0
LAYER
  5
D9
330
2
100
AcDbSymbolTableRecord
100
AcDbLayerTableRecord
  2
24
 70
     0
 62
     6
  6
Continuous
370
     9
390
F
  0
LAYER
  5
DA
330
2
100
AcDbSymbolTableRecord
100
AcDbLayerTableRecord
  2
27
 70
     0
 62
     4
  6
Continuous
370
     9
390
F
  0
LAYER
  5
DB
330
2
100
AcDbSymbolTableRecord
100
AcDbLayerTableRecord
  2
29
 70
     0
 62
     6
  6
Continuous
370
     9
390
F
  0
LAYER
  5
DC
330
2
100
AcDbSymbolTableRecord
100
AcDbLayerTableRecord
  2
35
 70
     0
 62
     2
  6
Continuous
370
     9
390
F
  0
LAYER
  5
DD
330
2
100
AcDbSymbolTableRecord
100
AcDbLayerTableRecord
  2
128
 70
     0
 62
     7
  6
Continuous
370
    50
390
F
  0
LAYER
  5
DE
330
2
100
AcDbSymbolTableRecord
100
AcDbLayerTableRecord
  2
134
 70
     0
 62
     7
  6
Continuous
370
     9
390
F
  0
LAYER
  5
DF
330
2
100
AcDbSymbolTableRecord
100
AcDbLayerTableRecord
  2
139
 70
     0
 62
     1
  6
Continuous
370
     9
390
F
  0
ENDTAB
  0
TABLE
  2
STYLE
  5
3
330
0
100
AcDbSymbolTable
 70
     3
  0
STYLE
  5
11
330
3
100
AcDbSymbolTableRecord
100
AcDbTextStyleTableRecord
  2
Standard
 70
     0
 40
0.0
 41
1.0
 50
0.0
 71
     0
 42
5.0
  3
txt
  4
bigfont
  0
STYLE
  5
6F
330
3
100
AcDbSymbolTableRecord
100
AcDbTextStyleTableRecord
  2
T_STANDARD
 70
     4
 40
10.0
 41
1.0
 50
0.0
 71
     0
 42
5.0
  3
txt
  4
bigfont
1001
ACAD
1000

1071
      256
  0
STYLE
  5
1CC
330
3
100
AcDbSymbolTableRecord
100
AcDbTextStyleTableRecord
  2
ＭＳ ゴシック
 70
     0
 40
0.0
 41
1.0
 50
0.0
 71
     0
 42
5.0
  3

  4

1001
ACAD
1000
ＭＳ ゴシック
1071
      256
  0
ENDTAB
  0
TABLE
  2
VIEW
  5
6
330
0
100
AcDbSymbolTable
 70
     0
  0
ENDTAB
  0
TABLE
  2
UCS
  5
7
330
0
100
AcDbSymbolTable
 70
     0
  0
ENDTAB
  0
TABLE
  2
APPID
  5
9
330
0
100
AcDbSymbolTable
 70
     3
  0
APPID
  5
12
330
9
100
AcDbSymbolTableRecord
100
AcDbRegAppTableRecord
  2
ACAD
 70
     0
  0
APPID
  5
6E
330
9
100
AcDbSymbolTableRecord
100
AcDbRegAppTableRecord
  2
ODA
 70
     0
  0
APPID
  5
3D0
330
9
100
AcDbSymbolTableRecord
100
AcDbRegAppTableRecord
  2
ACAD_MLEADERVER
 70
     0
  0
ENDTAB
  0
TABLE
  2
DIMSTYLE
  5
A
330
0
100
AcDbSymbolTable
 70
     1
100
AcDbDimStyleTable
  0
DIMSTYLE
105
27
102
{ACAD_REACTORS
330
1D6
330
1DD
330
1E4
330
1EB
330
1F2
330
1F9
330
200
330
207
330
211
330
21B
330
225
330
22F
330
239
330
243
330
24D
330
257
330
261
330
26B
330
275
330
27F
330
289
330
293
330
29D
330
2A4
330
2AB
330
2B2
330
2B9
330
2C0
330
2C7
330
2CE
330
2D8
330
2E2
330
2EC
330
2F6
330
300
330
30A
330
314
330
31E
330
328
330
332
330
33C
330
346
330
350
330
35A
330
364
330
36E
330
378
330
382
330
38C
102
}
330
A
100
AcDbSymbolTableRecord
100
AcDbDimStyleTableRecord
  2
Standard
 70
     0
178
     0
340
11
  0
ENDTAB
  0
TABLE
  2
BLOCK_RECORD
  5
1
330
0
100
AcDbSymbolTable
 70
    94
  0
BLOCK_RECORD
  5
1F
330
1
100
AcDbSymbolTableRecord
100
AcDbBlockTableRecord
  2
*Model_Space
340
22
  0
BLOCK_RECORD
  5
1B
330
1
100
AcDbSymbolTableRecord
100
AcDbBlockTableRecord
  2
*Paper_Space
340
1E
  0
BLOCK_RECORD
  5
23
330
1
100
AcDbSymbolTableRecord
100
AcDbBlockTableRecord
  2
*Paper_Space0
340
26
  0
BLOCK_RECORD
  5
70
330
1
100
AcDbSymbolTableRecord
100
AcDbBlockTableRecord
  2
_ORIGIN
340
0
  0
BLOCK_RECORD
  5
75
330
1
100
AcDbSymbolTableRecord
100
AcDbBlockTableRecord
  2
_DOTBLANK
340
0
  0
BLOCK_RECORD
  5
7A
330
1
100
AcDbSymbolTableRecord
100
AcDbBlockTableRecord
  2
_DOT
340
0
102
{BLKREFS
331
1D4
331
1D5
331
20F
331
210
331
219
331
21A
331
223
331
224
331
22D
331
22E
331
237
331
238
331
241
331
242
331
24B
331
24C
331
255
331
256
331
25F
331
260
331
269
331
26A
331
273
331
274
331
27D
331
27E
331
287
331
288
331
291
331
292
331
29B
331
29C
331
2D6
331
2D7
331
2E0
331
2E1
331
2EA
331
2EB
331
2F4
331
2F5
331
2FE
331
2FF
331
308
331
309
331
312
331
313
331
31C
331
31D
331
326
331
327
331
330
331
331
331
33A
331
33B
331
344
331
345
331
34E
331
34F
331
358
331
359
331
362
331
363
331
36C
331
36D
331
376
331
377
331
380
331
381
331
38A
331
38B
102
}
  0
BLOCK_RECORD
  5
7F
330
1
100
AcDbSymbolTableRecord
100
AcDbBlockTableRecord
  2
_OPEN
340
0
102
{BLKREFS
331
1DC
331
1E3
331
1EA
331
1F1
331
1F8
331
1FF
331
206
331
2A3
331
2AA
331
2B1
331
2B8
331
2BF
331
2C6
331
2CD
102
}
  0
BLOCK_RECORD
  5
85
330
1
100
AcDbSymbolTableRecord
100
AcDbBlockTableRecord
  2
_CLOSED
340
0
102
{BLKREFS
331
162
331
1B9
331
1C4
102
}
  0
BLOCK_RECORD
  5
8C
330
1
100
AcDbSymbolTableRecord
100
AcDbBlockTableRecord
  2
_CLOSEDBLANK
340
0
  0
BLOCK_RECORD
  5
92
330
1
100
AcDbSymbolTableRecord
100
AcDbBlockTableRecord
  2
_ARROWFILLED
340
0
  0
BLOCK_RECORD
  5
96
330
1
100
AcDbSymbolTableRecord
100
AcDbBlockTableRecord
  2
_BOXBLANK
340
0
  0
BLOCK_RECORD
  5
9E
330
1
100
AcDbSymbolTableRecord
100
AcDbBlockTableRecord
  2
_BOXFILLED
340
0
  0
BLOCK_RECORD
  5
A3
330
1
100
AcDbSymbolTableRecord
100
AcDbBlockTableRecord
  2
_INTEGRAL
340
0
  0
BLOCK_RECORD
  5
A8
330
1
100
AcDbSymbolTableRecord
100
AcDbBlockTableRecord
  2
_OBLIQUE
340
0
  0
BLOCK_RECORD
  5
AC
330
1
100
AcDbSymbolTableRecord
100
AcDbBlockTableRecord
  2
_NONE
340
0
  0
BLOCK_RECORD
  5
AF
330
1
100
AcDbSymbolTableRecord
100
AcDbBlockTableRecord
  2
MARK_OPEN
340
0
  0
BLOCK_RECORD
  5
B4
330
1
100
AcDbSymbolTableRecord
100
AcDbBlockTableRecord
  2
MARK_ORIGIN
340
0
  0
BLOCK_RECORD
  5
B8
330
1
100
AcDbSymbolTableRecord
100
AcDbBlockTableRecord
  2
MARK_DOT
340
0
  0
BLOCK_RECORD
  5
106
330
1
100
AcDbSymbolTableRecord
100
AcDbBlockTableRecord
  2
*G16
340
0
102
{BLKREFS
331
10B
102
}
  0
BLOCK_RECORD
  5
10C
330
1
100
AcDbSymbolTableRecord
100
AcDbBlockTableRecord
  2
*G17
340
0
102
{BLKREFS
331
111
102
}
  0
BLOCK_RECORD
  5
112
330
1
100
AcDbSymbolTableRecord
100
AcDbBlockTableRecord
  2
*G18
340
0
102
{BLKREFS
331
117
102
}
  0
BLOCK_RECORD
  5
118
330
1
100
AcDbSymbolTableRecord
100
AcDbBlockTableRecord
  2
*G19
340
0
102
{BLKREFS
331
11D
102
}
  0
BLOCK_RECORD
  5
11E
330
1
100
AcDbSymbolTableRecord
100
AcDbBlockTableRecord
  2
*G20
340
0
102
{BLKREFS
331
123
102
}
  0
BLOCK_RECORD
  5
124
330
1
100
AcDbSymbolTableRecord
100
AcDbBlockTableRecord
  2
*G21
340
0
102
{BLKREFS
331
129
102
}
  0
BLOCK_RECORD
  5
12A
330
1
100
AcDbSymbolTableRecord
100
AcDbBlockTableRecord
  2
*G22
340
0
102
{BLKREFS
331
12F
102
}
  0
BLOCK_RECORD
  5
130
330
1
100
AcDbSymbolTableRecord
100
AcDbBlockTableRecord
  2
*G23
340
0
102
{BLKREFS
331
135
102
}
  0
BLOCK_RECORD
  5
136
330
1
100
AcDbSymbolTableRecord
100
AcDbBlockTableRecord
  2
*G24
340
0
102
{BLKREFS
331
13B
102
}
  0
BLOCK_RECORD
  5
13C
330
1
100
AcDbSymbolTableRecord
100
AcDbBlockTableRecord
  2
*G25
340
0
102
{BLKREFS
331
141
102
}
  0
BLOCK_RECORD
  5
142
330
1
100
AcDbSymbolTableRecord
100
AcDbBlockTableRecord
  2
*G26
340
0
102
{BLKREFS
331
147
102
}
  0
BLOCK_RECORD
  5
148
330
1
100
AcDbSymbolTableRecord
100
AcDbBlockTableRecord
  2
*G27
340
0
102
{BLKREFS
331
14D
102
}
  0
BLOCK_RECORD
  5
14E
330
1
100
AcDbSymbolTableRecord
100
AcDbBlockTableRecord
  2
*G28
340
0
102
{BLKREFS
331
153
102
}
  0
BLOCK_RECORD
  5
154
330
1
100
AcDbSymbolTableRecord
100
AcDbBlockTableRecord
  2
*G29
340
0
102
{BLKREFS
331
159
102
}
  0
BLOCK_RECORD
  5
15A
330
1
100
AcDbSymbolTableRecord
100
AcDbBlockTableRecord
  2
*G30
340
0
102
{BLKREFS
331
15F
102
}
  0
BLOCK_RECORD
  5
16A
330
1
100
AcDbSymbolTableRecord
100
AcDbBlockTableRecord
  2
*G31
340
0
102
{BLKREFS
331
16F
102
}
  0
BLOCK_RECORD
  5
170
330
1
100
AcDbSymbolTableRecord
100
AcDbBlockTableRecord
  2
*G32
340
0
102
{BLKREFS
331
175
102
}
  0
BLOCK_RECORD
  5
176
330
1
100
AcDbSymbolTableRecord
100
AcDbBlockTableRecord
  2
*G33
340
0
102
{BLKREFS
331
17B
102
}
  0
BLOCK_RECORD
  5
17C
330
1
100
AcDbSymbolTableRecord
100
AcDbBlockTableRecord
  2
*G34
340
0
102
{BLKREFS
331
181
102
}
  0
BLOCK_RECORD
  5
182
330
1
100
AcDbSymbolTableRecord
100
AcDbBlockTableRecord
  2
*G35
340
0
102
{BLKREFS
331
187
102
}
  0
BLOCK_RECORD
  5
188
330
1
100
AcDbSymbolTableRecord
100
AcDbBlockTableRecord
  2
*G36
340
0
102
{BLKREFS
331
18D
102
}
  0
BLOCK_RECORD
  5
18E
330
1
100
AcDbSymbolTableRecord
100
AcDbBlockTableRecord
  2
*G37
340
0
102
{BLKREFS
331
193
102
}
  0
BLOCK_RECORD
  5
194
330
1
100
AcDbSymbolTableRecord
100
AcDbBlockTableRecord
  2
*G38
340
0
102
{BLKREFS
331
199
102
}
  0
BLOCK_RECORD
  5
19A
330
1
100
AcDbSymbolTableRecord
100
AcDbBlockTableRecord
  2
*G39
340
0
102
{BLKREFS
331
19F
102
}
  0
BLOCK_RECORD
  5
1A0
330
1
100
AcDbSymbolTableRecord
100
AcDbBlockTableRecord
  2
*G40
340
0
102
{BLKREFS
331
1A5
102
}
  0
BLOCK_RECORD
  5
1A6
330
1
100
AcDbSymbolTableRecord
100
AcDbBlockTableRecord
  2
*G41
340
0
102
{BLKREFS
331
1AB
102
}
  0
BLOCK_RECORD
  5
1AC
330
1
100
AcDbSymbolTableRecord
100
AcDbBlockTableRecord
  2
*G42
340
0
102
{BLKREFS
331
1B1
102
}
  0
BLOCK_RECORD
  5
1B2
330
1
100
AcDbSymbolTableRecord
100
AcDbBlockTableRecord
  2
*G43
340
0
102
{BLKREFS
331
1B7
102
}
  0
BLOCK_RECORD
  5
1C0
330
1
100
AcDbSymbolTableRecord
100
AcDbBlockTableRecord
  2
*G44
340
0
102
{BLKREFS
331
1CB
102
}
  0
BLOCK_RECORD
  5
1CD
330
1
100
AcDbSymbolTableRecord
100
AcDbBlockTableRecord
  2
Dim1
340
0
  0
BLOCK_RECORD
  5
1D7
330
1
100
AcDbSymbolTableRecord
100
AcDbBlockTableRecord
  2
Dim2
340
0
  0
BLOCK_RECORD
  5
1DE
330
1
100
AcDbSymbolTableRecord
100
AcDbBlockTableRecord
  2
Dim3
340
0
  0
BLOCK_RECORD
  5
1E5
330
1
100
AcDbSymbolTableRecord
100
AcDbBlockTableRecord
  2
Dim4
340
0
  0
BLOCK_RECORD
  5
1EC
330
1
100
AcDbSymbolTableRecord
100
AcDbBlockTableRecord
  2
Dim5
340
0
  0
BLOCK_RECORD
  5
1F3
330
1
100
AcDbSymbolTableRecord
100
AcDbBlockTableRecord
  2
Dim6
340
0
  0
BLOCK_RECORD
  5
1FA
330
1
100
AcDbSymbolTableRecord
100
AcDbBlockTableRecord
  2
Dim7
340
0
  0
BLOCK_RECORD
  5
201
330
1
100
AcDbSymbolTableRecord
100
AcDbBlockTableRecord
  2
Dim8
340
0
  0
BLOCK_RECORD
  5
208
330
1
100
AcDbSymbolTableRecord
100
AcDbBlockTableRecord
  2
Dim9
340
0
  0
BLOCK_RECORD
  5
212
330
1
100
AcDbSymbolTableRecord
100
AcDbBlockTableRecord
  2
Dim10
340
0
  0
BLOCK_RECORD
  5
21C
330
1
100
AcDbSymbolTableRecord
100
AcDbBlockTableRecord
  2
Dim11
340
0
  0
BLOCK_RECORD
  5
226
330
1
100
AcDbSymbolTableRecord
100
AcDbBlockTableRecord
  2
Dim12
340
0
  0
BLOCK_RECORD
  5
230
330
1
100
AcDbSymbolTableRecord
100
AcDbBlockTableRecord
  2
Dim13
340
0
  0
BLOCK_RECORD
  5
23A
330
1
100
AcDbSymbolTableRecord
100
AcDbBlockTableRecord
  2
Dim14
340
0
  0
BLOCK_RECORD
  5
244
330
1
100
AcDbSymbolTableRecord
100
AcDbBlockTableRecord
  2
Dim15
340
0
  0
BLOCK_RECORD
  5
24E
330
1
100
AcDbSymbolTableRecord
100
AcDbBlockTableRecord
  2
Dim16
340
0
  0
BLOCK_RECORD
  5
258
330
1
100
AcDbSymbolTableRecord
100
AcDbBlockTableRecord
  2
Dim17
340
0
  0
BLOCK_RECORD
  5
262
330
1
100
AcDbSymbolTableRecord
100
AcDbBlockTableRecord
  2
Dim18
340
0
  0
BLOCK_RECORD
  5
26C
330
1
100
AcDbSymbolTableRecord
100
AcDbBlockTableRecord
  2
Dim19
340
0
  0
BLOCK_RECORD
  5
276
330
1
100
AcDbSymbolTableRecord
100
AcDbBlockTableRecord
  2
Dim20
340
0
  0
BLOCK_RECORD
  5
280
330
1
100
AcDbSymbolTableRecord
100
AcDbBlockTableRecord
  2
Dim21
340
0
  0
BLOCK_RECORD
  5
28A
330
1
100
AcDbSymbolTableRecord
100
AcDbBlockTableRecord
  2
Dim22
340
0
  0
BLOCK_RECORD
  5
294
330
1
100
AcDbSymbolTableRecord
100
AcDbBlockTableRecord
  2
Dim23
340
0
  0
BLOCK_RECORD
  5
29E
330
1
100
AcDbSymbolTableRecord
100
AcDbBlockTableRecord
  2
Dim24
340
0
  0
BLOCK_RECORD
  5
2A5
330
1
100
AcDbSymbolTableRecord
100
AcDbBlockTableRecord
  2
Dim25
340
0
  0
BLOCK_RECORD
  5
2AC
330
1
100
AcDbSymbolTableRecord
100
AcDbBlockTableRecord
  2
Dim26
340
0
  0
BLOCK_RECORD
  5
2B3
330
1
100
AcDbSymbolTableRecord
100
AcDbBlockTableRecord
  2
Dim27
340
0
  0
BLOCK_RECORD
  5
2BA
330
1
100
AcDbSymbolTableRecord
100
AcDbBlockTableRecord
  2
Dim28
340
0
  0
BLOCK_RECORD
  5
2C1
330
1
100
AcDbSymbolTableRecord
100
AcDbBlockTableRecord
  2
Dim29
340
0
  0
BLOCK_RECORD
  5
2C8
330
1
100
AcDbSymbolTableRecord
100
AcDbBlockTableRecord
  2
Dim30
340
0
  0
BLOCK_RECORD
  5
2CF
330
1
100
AcDbSymbolTableRecord
100
AcDbBlockTableRecord
  2
Dim31
340
0
  0
BLOCK_RECORD
  5
2D9
330
1
100
AcDbSymbolTableRecord
100
AcDbBlockTableRecord
  2
Dim32
340
0
  0
BLOCK_RECORD
  5
2E3
330
1
100
AcDbSymbolTableRecord
100
AcDbBlockTableRecord
  2
Dim33
340
0
  0
BLOCK_RECORD
  5
2ED
330
1
100
AcDbSymbolTableRecord
100
AcDbBlockTableRecord
  2
Dim34
340
0
  0
BLOCK_RECORD
  5
2F7
330
1
100
AcDbSymbolTableRecord
100
AcDbBlockTableRecord
  2
Dim35
340
0
  0
BLOCK_RECORD
  5
301
330
1
100
AcDbSymbolTableRecord
100
AcDbBlockTableRecord
  2
Dim36
340
0
  0
BLOCK_RECORD
  5
30B
330
1
100
AcDbSymbolTableRecord
100
AcDbBlockTableRecord
  2
Dim37
340
0
  0
BLOCK_RECORD
  5
315
330
1
100
AcDbSymbolTableRecord
100
AcDbBlockTableRecord
  2
Dim38
340
0
  0
BLOCK_RECORD
  5
31F
330
1
100
AcDbSymbolTableRecord
100
AcDbBlockTableRecord
  2
Dim39
340
0
  0
BLOCK_RECORD
  5
329
330
1
100
AcDbSymbolTableRecord
100
AcDbBlockTableRecord
  2
Dim40
340
0
  0
BLOCK_RECORD
  5
333
330
1
100
AcDbSymbolTableRecord
100
AcDbBlockTableRecord
  2
Dim41
340
0
  0
BLOCK_RECORD
  5
33D
330
1
100
AcDbSymbolTableRecord
100
AcDbBlockTableRecord
  2
Dim42
340
0
  0
BLOCK_RECORD
  5
347
330
1
100
AcDbSymbolTableRecord
100
AcDbBlockTableRecord
  2
Dim43
340
0
  0
BLOCK_RECORD
  5
351
330
1
100
AcDbSymbolTableRecord
100
AcDbBlockTableRecord
  2
Dim44
340
0
  0
BLOCK_RECORD
  5
35B
330
1
100
AcDbSymbolTableRecord
100
AcDbBlockTableRecord
  2
Dim45
340
0
  0
BLOCK_RECORD
  5
365
330
1
100
AcDbSymbolTableRecord
100
AcDbBlockTableRecord
  2
Dim46
340
0
  0
BLOCK_RECORD
  5
36F
330
1
100
AcDbSymbolTableRecord
100
AcDbBlockTableRecord
  2
Dim47
340
0
  0
BLOCK_RECORD
  5
379
330
1
100
AcDbSymbolTableRecord
100
AcDbBlockTableRecord
  2
Dim48
340
0
  0
BLOCK_RECORD
  5
383
330
1
100
AcDbSymbolTableRecord
100
AcDbBlockTableRecord
  2
Dim49
340
0
  0
ENDTAB
  0
ENDSEC
  0
SECTION
  2
BLOCKS
  0
BLOCK
  5
20
330
1F
100
AcDbEntity
  8
0
100
AcDbBlockBegin
  2
*Model_Space
 70
     0
 10
0.0
 20
0.0
 30
0.0
  3
*Model_Space
  1

  0
ENDBLK
  5
21
330
1F
100
AcDbEntity
  8
0
100
AcDbBlockEnd
  0
BLOCK
  5
1C
330
1B
100
AcDbEntity
 67
     1
  8
0
100
AcDbBlockBegin
  2
*Paper_Space
 70
     0
 10
0.0
 20
0.0
 30
0.0
  3
*Paper_Space
  1

  0
ENDBLK
  5
1D
330
1B
100
AcDbEntity
 67
     1
  8
0
100
AcDbBlockEnd
  0
BLOCK
  5
24
330
23
100
AcDbEntity
  8
0
100
AcDbBlockBegin
  2
*Paper_Space0
 70
     0
 10
0.0
 20
0.0
 30
0.0
  3
*Paper_Space0
  1

  0
ENDBLK
  5
25
330
23
100
AcDbEntity
  8
0
100
AcDbBlockEnd
  0
BLOCK
  5
73
330
70
100
AcDbEntity
  8
0
100
AcDbBlockBegin
  2
_ORIGIN
 70
     0
 10
0.0
 20
0.0
 30
0.0
  3
_ORIGIN
  1

  0
CIRCLE
  5
71
330
70
100
AcDbEntity
  8
0
 62
     0
100
AcDbCircle
 10
0.0
 20
0.0
 30
0.0
 40
0.5
  0
LINE
  5
72
330
70
100
AcDbEntity
  8
0
 62
     0
100
AcDbLine
 10
0.0
 20
0.0
 30
0.0
 11
-1.0
 21
0.0
 31
0.0
  0
ENDBLK
  5
74
330
70
100
AcDbEntity
  8
0
100
AcDbBlockEnd
  0
BLOCK
  5
78
330
75
100
AcDbEntity
  8
0
100
AcDbBlockBegin
  2
_DOTBLANK
 70
     0
 10
0.0
 20
0.0
 30
0.0
  3
_DOTBLANK
  1

  0
CIRCLE
  5
76
330
75
100
AcDbEntity
  8
0
 62
     0
100
AcDbCircle
 10
0.0
 20
0.0
 30
0.0
 40
0.5
  0
LINE
  5
77
330
75
100
AcDbEntity
  8
0
 62
     0
100
AcDbLine
 10
-0.5
 20
0.0
 30
0.0
 11
-1.0
 21
0.0
 31
0.0
  0
ENDBLK
  5
79
330
75
100
AcDbEntity
  8
0
100
AcDbBlockEnd
  0
BLOCK
  5
7D
330
7A
100
AcDbEntity
  8
0
100
AcDbBlockBegin
  2
_DOT
 70
     0
 10
0.0
 20
0.0
 30
0.0
  3
_DOT
  1

  0
LWPOLYLINE
  5
7B
330
7A
100
AcDbEntity
  8
0
 62
     0
100
AcDbPolyline
 90
        2
 70
     1
 43
0.5
 10
-0.25
 20
0.0
 42
1.0
 10
0.25
 20
0.0
 42
1.0
  0
LINE
  5
7C
330
7A
100
AcDbEntity
  8
0
 62
     0
100
AcDbLine
 10
-0.5
 20
0.0
 30
0.0
 11
-1.0
 21
0.0
 31
0.0
  0
ENDBLK
  5
7E
330
7A
100
AcDbEntity
  8
0
100
AcDbBlockEnd
  0
BLOCK
  5
83
330
7F
100
AcDbEntity
  8
0
100
AcDbBlockBegin
  2
_OPEN
 70
     0
 10
0.0
 20
0.0
 30
0.0
  3
_OPEN
  1

  0
LINE
  5
80
330
7F
100
AcDbEntity
  8
0
 62
     0
100
AcDbLine
 10
0.0
 20
0.0
 30
0.0
 11
-1.0
 21
0.1666666666666667
 31
0.0
  0
LINE
  5
81
330
7F
100
AcDbEntity
  8
0
 62
     0
100
AcDbLine
 10
0.0
 20
0.0
 30
0.0
 11
-1.0
 21
-0.1666666666666667
 31
0.0
  0
LINE
  5
82
330
7F
100
AcDbEntity
  8
0
 62
     0
100
AcDbLine
 10
0.0
 20
0.0
 30
0.0
 11
-1.0
 21
0.0
 31
0.0
  0
ENDBLK
  5
84
330
7F
100
AcDbEntity
  8
0
100
AcDbBlockEnd
  0
BLOCK
  5
8A
330
85
100
AcDbEntity
  8
0
100
AcDbBlockBegin
  2
_CLOSED
 70
     0
 10
0.0
 20
0.0
 30
0.0
  3
_CLOSED
  1

  0
LINE
  5
86
330
85
100
AcDbEntity
  8
0
 62
     0
100
AcDbLine
 10
0.0
 20
0.0
 30
0.0
 11
-1.0
 21
0.1666666666666667
 31
0.0
  0
LINE
  5
87
330
85
100
AcDbEntity
  8
0
 62
     0
100
AcDbLine
 10
0.0
 20
0.0
 30
0.0
 11
-1.0
 21
-0.1666666666666667
 31
0.0
  0
LINE
  5
88
330
85
100
AcDbEntity
  8
0
 62
     0
100
AcDbLine
 10
-1.0
 20
0.1666666666666667
 30
0.0
 11
-1.0
 21
-0.1666666666666667
 31
0.0
  0
LINE
  5
89
330
85
100
AcDbEntity
  8
0
 62
     0
100
AcDbLine
 10
0.0
 20
0.0
 30
0.0
 11
-1.0
 21
0.0
 31
0.0
  0
ENDBLK
  5
8B
330
85
100
AcDbEntity
  8
0
100
AcDbBlockEnd
  0
BLOCK
  5
90
330
8C
100
AcDbEntity
  8
0
100
AcDbBlockBegin
  2
_CLOSEDBLANK
 70
     0
 10
0.0
 20
0.0
 30
0.0
  3
_CLOSEDBLANK
  1

  0
LINE
  5
8D
330
8C
100
AcDbEntity
  8
0
 62
     0
100
AcDbLine
 10
0.0
 20
0.0
 30
0.0
 11
-1.0
 21
0.1666666666666667
 31
0.0
  0
LINE
  5
8E
330
8C
100
AcDbEntity
  8
0
 62
     0
100
AcDbLine
 10
0.0
 20
0.0
 30
0.0
 11
-1.0
 21
-0.1666666666666667
 31
0.0
  0
LINE
  5
8F
330
8C
100
AcDbEntity
  8
0
 62
     0
100
AcDbLine
 10
-1.0
 20
0.1666666666666667
 30
0.0
 11
-1.0
 21
-0.1666666666666667
 31
0.0
  0
ENDBLK
  5
91
330
8C
100
AcDbEntity
  8
0
100
AcDbBlockEnd
  0
BLOCK
  5
94
330
92
100
AcDbEntity
  8
0
100
AcDbBlockBegin
  2
_ARROWFILLED
 70
     0
 10
0.0
 20
0.0
 30
0.0
  3
_ARROWFILLED
  1

  0
SOLID
  5
93
330
92
100
AcDbEntity
  8
0
 62
     0
100
AcDbTrace
 10
0.0
 20
0.0
 30
0.0
 11
-1.0
 21
-0.1666666666666667
 31
0.0
 12
-1.0
 22
0.1666666666666667
 32
0.0
 13
0.0
 23
0.0
 33
0.0
  0
ENDBLK
  5
95
330
92
100
AcDbEntity
  8
0
100
AcDbBlockEnd
  0
BLOCK
  5
9C
330
96
100
AcDbEntity
  8
0
100
AcDbBlockBegin
  2
_BOXBLANK
 70
     0
 10
0.0
 20
0.0
 30
0.0
  3
_BOXBLANK
  1

  0
LINE
  5
97
330
96
100
AcDbEntity
  8
0
 62
     0
100
AcDbLine
 10
-0.5
 20
-0.5
 30
0.0
 11
0.5
 21
-0.5
 31
0.0
  0
LINE
  5
98
330
96
100
AcDbEntity
  8
0
 62
     0
100
AcDbLine
 10
0.5
 20
-0.5
 30
0.0
 11
0.5
 21
0.5
 31
0.0
  0
LINE
  5
99
330
96
100
AcDbEntity
  8
0
 62
     0
100
AcDbLine
 10
0.5
 20
0.5
 30
0.0
 11
-0.5
 21
0.5
 31
0.0
  0
LINE
  5
9A
330
96
100
AcDbEntity
  8
0
 62
     0
100
AcDbLine
 10
-0.5
 20
0.5
 30
0.0
 11
-0.5
 21
-0.5
 31
0.0
  0
LINE
  5
9B
330
96
100
AcDbEntity
  8
0
 62
     0
100
AcDbLine
 10
-0.5
 20
0.0
 30
0.0
 11
-1.0
 21
0.0
 31
0.0
  0
ENDBLK
  5
9D
330
96
100
AcDbEntity
  8
0
100
AcDbBlockEnd
  0
BLOCK
  5
A1
330
9E
100
AcDbEntity
  8
0
100
AcDbBlockBegin
  2
_BOXFILLED
 70
     0
 10
0.0
 20
0.0
 30
0.0
  3
_BOXFILLED
  1

  0
SOLID
  5
9F
330
9E
100
AcDbEntity
  8
0
 62
     0
100
AcDbTrace
 10
-0.5
 20
0.5
 30
0.0
 11
0.5
 21
0.5
 31
0.0
 12
-0.5
 22
-0.5
 32
0.0
 13
0.5
 23
-0.5
 33
0.0
  0
LINE
  5
A0
330
9E
100
AcDbEntity
  8
0
 62
     0
100
AcDbLine
 10
-0.5
 20
0.0
 30
0.0
 11
-1.0
 21
0.0
 31
0.0
  0
ENDBLK
  5
A2
330
9E
100
AcDbEntity
  8
0
100
AcDbBlockEnd
  0
BLOCK
  5
A6
330
A3
100
AcDbEntity
  8
0
100
AcDbBlockBegin
  2
_INTEGRAL
 70
     0
 10
0.0
 20
0.0
 30
0.0
  3
_INTEGRAL
  1

  0
ARC
  5
A4
330
A3
100
AcDbEntity
  8
0
 62
     0
100
AcDbCircle
 10
0.444888
 20
-0.0913346
 30
0.0
 40
0.4541666
100
AcDbArc
 50
101.9999999999999
 51
167.9999999999998
  0
ARC
  5
A5
330
A3
100
AcDbEntity
  8
0
 62
     0
100
AcDbCircle
 10
-0.444888
 20
0.0913346
 30
0.0
 40
0.4541666
100
AcDbArc
 50
281.9999999999997
 51
347.9999999999997
  0
ENDBLK
  5
A7
330
A3
100
AcDbEntity
  8
0
100
AcDbBlockEnd
  0
BLOCK
  5
AA
330
A8
100
AcDbEntity
  8
0
100
AcDbBlockBegin
  2
_OBLIQUE
 70
     0
 10
0.0
 20
0.0
 30
0.0
  3
_OBLIQUE
  1

  0
LINE
  5
A9
330
A8
100
AcDbEntity
  8
0
 62
     0
100
AcDbLine
 10
-0.5
 20
-0.5
 30
0.0
 11
0.5
 21
0.5
 31
0.0
  0
ENDBLK
  5
AB
330
A8
100
AcDbEntity
  8
0
100
AcDbBlockEnd
  0
BLOCK
  5
AD
330
AC
100
AcDbEntity
  8
0
100
AcDbBlockBegin
  2
_NONE
 70
     0
 10
0.0
 20
0.0
 30
0.0
  3
_NONE
  1

  0
ENDBLK
  5
AE
330
AC
100
AcDbEntity
  8
0
100
AcDbBlockEnd
  0
BLOCK
  5
B2
330
AF
100
AcDbEntity
  8
0
100
AcDbBlockBegin
  2
MARK_OPEN
 70
     0
 10
0.0
 20
0.0
 30
0.0
  3
MARK_OPEN
  1

  0
LINE
  5
B0
330
AF
100
AcDbEntity
  8
0
 62
     0
100
AcDbLine
 10
0.0
 20
0.0
 30
0.0
 11
-1.0
 21
0.1666666666666667
 31
0.0
  0
LINE
  5
B1
330
AF
100
AcDbEntity
  8
0
 62
     0
100
AcDbLine
 10
0.0
 20
0.0
 30
0.0
 11
-1.0
 21
-0.1666666666666667
 31
0.0
  0
ENDBLK
  5
B3
330
AF
100
AcDbEntity
  8
0
100
AcDbBlockEnd
  0
BLOCK
  5
B6
330
B4
100
AcDbEntity
  8
0
100
AcDbBlockBegin
  2
MARK_ORIGIN
 70
     0
 10
0.0
 20
0.0
 30
0.0
  3
MARK_ORIGIN
  1

  0
CIRCLE
  5
B5
330
B4
100
AcDbEntity
  8
0
 62
     0
100
AcDbCircle
 10
0.0
 20
0.0
 30
0.0
 40
0.5
  0
ENDBLK
  5
B7
330
B4
100
AcDbEntity
  8
0
100
AcDbBlockEnd
  0
BLOCK
  5
BA
330
B8
100
AcDbEntity
  8
0
100
AcDbBlockBegin
  2
MARK_DOT
 70
     0
 10
0.0
 20
0.0
 30
0.0
  3
MARK_DOT
  1

  0
LWPOLYLINE
  5
B9
330
B8
100
AcDbEntity
  8
0
 62
     0
100
AcDbPolyline
 90
        2
 70
     1
 43
0.5
 10
-0.25
 20
0.0
 42
1.0
 10
0.25
 20
0.0
 42
1.0
  0
ENDBLK
  5
BB
330
B8
100
AcDbEntity
  8
0
100
AcDbBlockEnd
  0
BLOCK
  5
107
330
106
100
AcDbEntity
  8
0
100
AcDbBlockBegin
  2
*G16
 70
     1
 10
0.0
 20
0.0
 30
0.0
  3
*G16
  1

  0
LINE
  5
109
330
106
100
AcDbEntity
  8
2
  6
HIDDEN
 62
   134
370
     9
100
AcDbLine
 10
151.0697937560508
 20
232.9205690992472
 30
0.0
 11
151.0697937560508
 21
222.9205690992472
 31
0.0
  0
LINE
  5
10A
330
106
100
AcDbEntity
  8
2
  6
HIDDEN
 62
   134
370
     9
100
AcDbLine
 10
146.069793756053
 20
227.9205690992491
 30
0.0
 11
156.069793756053
 21
227.9205690992491
 31
0.0
  0
ENDBLK
  5
108
330
106
100
AcDbEntity
  8
0
100
AcDbBlockEnd
  0
BLOCK
  5
10D
330
10C
100
AcDbEntity
  8
0
100
AcDbBlockBegin
  2
*G17
 70
     1
 10
0.0
 20
0.0
 30
0.0
  3
*G17
  1

  0
LINE
  5
10F
330
10C
100
AcDbEntity
  8
2
  6
HIDDEN
 62
   134
370
     9
100
AcDbLine
 10
89.11154374863618
 20
199.2060156171363
 30
0.0
 11
89.11154374863618
 21
189.2060156171363
 31
0.0
  0
LINE
  5
110
330
10C
100
AcDbEntity
  8
2
  6
HIDDEN
 62
   134
370
     9
100
AcDbLine
 10
84.11154374863837
 20
194.2060156171385
 30
0.0
 11
94.11154374863837
 21
194.2060156171385
 31
0.0
  0
ENDBLK
  5
10E
330
10C
100
AcDbEntity
  8
0
100
AcDbBlockEnd
  0
BLOCK
  5
113
330
112
100
AcDbEntity
  8
0
100
AcDbBlockBegin
  2
*G18
 70
     1
 10
0.0
 20
0.0
 30
0.0
  3
*G18
  1

  0
LINE
  5
115
330
112
100
AcDbEntity
  8
2
  6
HIDDEN
 62
   134
370
     9
100
AcDbLine
 10
67.20108171970423
 20
154.5906016648762
 30
0.0
 11
67.20108171970423
 21
144.5906016648762
 31
0.0
  0
LINE
  5
116
330
112
100
AcDbEntity
  8
2
  6
HIDDEN
 62
   134
370
     9
100
AcDbLine
 10
62.20108171970642
 20
149.5906016648776
 30
0.0
 11
72.20108171970642
 21
149.5906016648776
 31
0.0
  0
ENDBLK
  5
114
330
112
100
AcDbEntity
  8
0
100
AcDbBlockEnd
  0
BLOCK
  5
119
330
118
100
AcDbEntity
  8
0
100
AcDbBlockBegin
  2
*G19
 70
     1
 10
0.0
 20
0.0
 30
0.0
  3
*G19
  1

  0
LINE
  5
11B
330
118
100
AcDbEntity
  8
2
  6
HIDDEN
 62
   134
370
     9
100
AcDbLine
 10
68.21093341531524
 20
132.0702912725355
 30
0.0
 11
68.21093341531524
 21
122.0702912725355
 31
0.0
  0
LINE
  5
11C
330
118
100
AcDbEntity
  8
2
  6
HIDDEN
 62
   134
370
     9
100
AcDbLine
 10
63.21093341531669
 20
127.0702912725374
 30
0.0
 11
73.21093341531669
 21
127.0702912725374
 31
0.0
  0
ENDBLK
  5
11A
330
118
100
AcDbEntity
  8
0
100
AcDbBlockEnd
  0
BLOCK
  5
11F
330
11E
100
AcDbEntity
  8
0
100
AcDbBlockBegin
  2
*G20
 70
     1
 10
0.0
 20
0.0
 30
0.0
  3
*G20
  1

  0
LINE
  5
121
330
11E
100
AcDbEntity
  8
2
  6
HIDDEN
 62
   134
370
     9
100
AcDbLine
 10
101.5357690273682
 20
71.75950956619818
 30
0.0
 11
101.5357690273682
 21
61.75950956619818
 31
0.0
  0
LINE
  5
122
330
11E
100
AcDbEntity
  8
2
  6
HIDDEN
 62
   134
370
     9
100
AcDbLine
 10
96.53576902736968
 20
66.7595095662
 30
0.0
 11
106.5357690273697
 21
66.7595095662
 31
0.0
  0
ENDBLK
  5
120
330
11E
100
AcDbEntity
  8
0
100
AcDbBlockEnd
  0
BLOCK
  5
125
330
124
100
AcDbEntity
  8
0
100
AcDbBlockBegin
  2
*G21
 70
     1
 10
0.0
 20
0.0
 30
0.0
  3
*G21
  1

  0
LINE
  5
127
330
124
100
AcDbEntity
  8
2
  6
HIDDEN
 62
   134
370
     9
100
AcDbLine
 10
156.4830997847661
 20
42.76367897751334
 30
0.0
 11
156.4830997847661
 21
32.76367897751334
 31
0.0
  0
LINE
  5
128
330
124
100
AcDbEntity
  8
2
  6
HIDDEN
 62
   134
370
     9
100
AcDbLine
 10
151.4830997847675
 20
37.76367897751516
 30
0.0
 11
161.4830997847675
 21
37.76367897751516
 31
0.0
  0
ENDBLK
  5
126
330
124
100
AcDbEntity
  8
0
100
AcDbBlockEnd
  0
BLOCK
  5
12B
330
12A
100
AcDbEntity
  8
0
100
AcDbBlockBegin
  2
*G22
 70
     1
 10
0.0
 20
0.0
 30
0.0
  3
*G22
  1

  0
LINE
  5
12D
330
12A
100
AcDbEntity
  8
2
  6
HIDDEN
 62
   134
370
     9
100
AcDbLine
 10
221.8278476891282
 20
33.33611695482796
 30
0.0
 11
221.8278476891282
 21
23.33611695482796
 31
0.0
  0
LINE
  5
12E
330
12A
100
AcDbEntity
  8
2
  6
HIDDEN
 62
   134
370
     9
100
AcDbLine
 10
216.8278476891304
 20
28.33611695482978
 30
0.0
 11
226.8278476891304
 21
28.33611695482978
 31
0.0
  0
ENDBLK
  5
12C
330
12A
100
AcDbEntity
  8
0
100
AcDbBlockEnd
  0
BLOCK
  5
131
330
130
100
AcDbEntity
  8
0
100
AcDbBlockBegin
  2
*G23
 70
     1
 10
0.0
 20
0.0
 30
0.0
  3
*G23
  1

  0
LINE
  5
133
330
130
100
AcDbEntity
  8
2
  6
HIDDEN
 62
   134
370
     9
100
AcDbLine
 10
217.8278476891282
 20
242.8334877480542
 30
0.0
 11
217.8278476891282
 21
232.8334877480542
 31
0.0
  0
LINE
  5
134
330
130
100
AcDbEntity
  8
2
  6
HIDDEN
 62
   134
370
     9
100
AcDbLine
 10
212.8278476891304
 20
237.833487748056
 30
0.0
 11
222.8278476891304
 21
237.833487748056
 31
0.0
  0
ENDBLK
  5
132
330
130
100
AcDbEntity
  8
0
100
AcDbBlockEnd
  0
BLOCK
  5
137
330
136
100
AcDbEntity
  8
0
100
AcDbBlockBegin
  2
*G24
 70
     1
 10
0.0
 20
0.0
 30
0.0
  3
*G24
  1

  0
LINE
  5
139
330
136
100
AcDbEntity
  8
2
  6
HIDDEN
 62
   134
370
     9
100
AcDbLine
 10
224.3977621120906
 20
282.3228546334849
 30
0.0
 11
224.3977621120906
 21
272.3228546334849
 31
0.0
  0
LINE
  5
13A
330
136
100
AcDbEntity
  8
2
  6
HIDDEN
 62
   134
370
     9
100
AcDbLine
 10
219.3977621120928
 20
277.3228546334867
 30
0.0
 11
229.3977621120928
 21
277.3228546334867
 31
0.0
  0
ENDBLK
  5
138
330
136
100
AcDbEntity
  8
0
100
AcDbBlockEnd
  0
BLOCK
  5
13D
330
13C
100
AcDbEntity
  8
0
100
AcDbBlockBegin
  2
*G25
 70
     1
 10
0.0
 20
0.0
 30
0.0
  3
*G25
  1

  0
LINE
  5
13F
330
13C
100
AcDbEntity
  8
2
  6
HIDDEN
 62
   134
370
     9
100
AcDbLine
 10
217.8278476891395
 20
13.08764384275237
 30
0.0
 11
217.8278476891395
 21
3.087643842752368
 31
0.0
  0
LINE
  5
140
330
13C
100
AcDbEntity
  8
2
  6
HIDDEN
 62
   134
370
     9
100
AcDbLine
 10
212.8278476891417
 20
8.087643842754188
 30
0.0
 11
222.8278476891417
 21
8.087643842754188
 31
0.0
  0
ENDBLK
  5
13E
330
13C
100
AcDbEntity
  8
0
100
AcDbBlockEnd
  0
BLOCK
  5
143
330
142
100
AcDbEntity
  8
0
100
AcDbBlockBegin
  2
*G26
 70
     1
 10
0.0
 20
0.0
 30
0.0
  3
*G26
  1

  0
LINE
  5
145
330
142
100
AcDbEntity
  8
2
  6
HIDDEN
 62
   134
370
     9
100
AcDbLine
 10
201.7748694749655
 20
65.94977735308785
 30
0.0
 11
201.7748694749655
 21
55.94977735308785
 31
0.0
  0
LINE
  5
146
330
142
100
AcDbEntity
  8
2
  6
HIDDEN
 62
   134
370
     9
100
AcDbLine
 10
196.7748694749677
 20
60.94977735308967
 30
0.0
 11
206.7748694749677
 21
60.94977735308967
 31
0.0
  0
ENDBLK
  5
144
330
142
100
AcDbEntity
  8
0
100
AcDbBlockEnd
  0
BLOCK
  5
149
330
148
100
AcDbEntity
  8
0
100
AcDbBlockBegin
  2
*G27
 70
     1
 10
0.0
 20
0.0
 30
0.0
  3
*G27
  1

  0
LINE
  5
14B
330
148
100
AcDbEntity
  8
2
  6
HIDDEN
 62
   134
370
     9
100
AcDbLine
 10
197.259172145955
 20
186.595392875377
 30
0.0
 11
197.259172145955
 21
176.595392875377
 31
0.0
  0
LINE
  5
14C
330
148
100
AcDbEntity
  8
2
  6
HIDDEN
 62
   134
370
     9
100
AcDbLine
 10
192.2591721459572
 20
181.5953928753788
 30
0.0
 11
202.2591721459572
 21
181.5953928753788
 31
0.0
  0
ENDBLK
  5
14A
330
148
100
AcDbEntity
  8
0
100
AcDbBlockEnd
  0
BLOCK
  5
14F
330
14E
100
AcDbEntity
  8
0
100
AcDbBlockBegin
  2
*G28
 70
     1
 10
0.0
 20
0.0
 30
0.0
  3
*G28
  1

  0
LINE
  5
151
330
14E
100
AcDbEntity
  8
2
  6
HIDDEN
 62
   134
370
     9
100
AcDbLine
 10
162.3633496043996
 20
144.7321444449422
 30
0.0
 11
162.3633496043996
 21
134.7321444449422
 31
0.0
  0
LINE
  5
152
330
14E
100
AcDbEntity
  8
2
  6
HIDDEN
 62
   134
370
     9
100
AcDbLine
 10
157.3633496044018
 20
139.7321444449441
 30
0.0
 11
167.3633496044018
 21
139.7321444449441
 31
0.0
  0
ENDBLK
  5
150
330
14E
100
AcDbEntity
  8
0
100
AcDbBlockEnd
  0
BLOCK
  5
155
330
154
100
AcDbEntity
  8
0
100
AcDbBlockBegin
  2
*G29
 70
     1
 10
0.0
 20
0.0
 30
0.0
  3
*G29
  1

  0
LINE
  5
157
330
154
100
AcDbEntity
  8
2
  6
HIDDEN
 62
   134
370
     9
100
AcDbLine
 10
129.140920224474
 20
151.8599596150132
 30
0.0
 11
129.140920224474
 21
141.8599596150132
 31
0.0
  0
LINE
  5
158
330
154
100
AcDbEntity
  8
2
  6
HIDDEN
 62
   134
370
     9
100
AcDbLine
 10
124.1409202244762
 20
146.859959615015
 30
0.0
 11
134.1409202244762
 21
146.859959615015
 31
0.0
  0
ENDBLK
  5
156
330
154
100
AcDbEntity
  8
0
100
AcDbBlockEnd
  0
BLOCK
  5
15B
330
15A
100
AcDbEntity
  8
0
100
AcDbBlockBegin
  2
*G30
 70
     1
 10
0.0
 20
0.0
 30
0.0
  3
*G30
  1

  0
LINE
  5
15D
330
15A
100
AcDbEntity
  8
2
  6
HIDDEN
 62
   134
370
     9
100
AcDbLine
 10
194.0817140266034
 20
148.9971897240612
 30
0.0
 11
194.0817140266034
 21
138.9971897240612
 31
0.0
  0
LINE
  5
15E
330
15A
100
AcDbEntity
  8
2
  6
HIDDEN
 62
   134
370
     9
100
AcDbLine
 10
189.0817140266056
 20
143.997189724063
 30
0.0
 11
199.0817140266056
 21
143.997189724063
 31
0.0
  0
ENDBLK
  5
15C
330
15A
100
AcDbEntity
  8
0
100
AcDbBlockEnd
  0
BLOCK
  5
16B
330
16A
100
AcDbEntity
  8
0
100
AcDbBlockBegin
  2
*G31
 70
     1
 10
0.0
 20
0.0
 30
0.0
  3
*G31
  1

  0
LINE
  5
16D
330
16A
100
AcDbEntity
  8
2
  6
HIDDEN
 62
   134
370
     9
100
AcDbLine
 10
292.5859016222188
 20
232.9205690992472
 30
0.0
 11
292.5859016222188
 21
222.9205690992472
 31
0.0
  0
LINE
  5
16E
330
16A
100
AcDbEntity
  8
2
  6
HIDDEN
 62
   134
370
     9
100
AcDbLine
 10
297.5859016222166
 20
227.9205690992491
 30
0.0
 11
287.5859016222166
 21
227.9205690992491
 31
0.0
  0
ENDBLK
  5
16C
330
16A
100
AcDbEntity
  8
0
100
AcDbBlockEnd
  0
BLOCK
  5
171
330
170
100
AcDbEntity
  8
0
100
AcDbBlockBegin
  2
*G32
 70
     1
 10
0.0
 20
0.0
 30
0.0
  3
*G32
  1

  0
LINE
  5
173
330
170
100
AcDbEntity
  8
2
  6
HIDDEN
 62
   134
370
     9
100
AcDbLine
 10
354.5441516296335
 20
199.2060156171363
 30
0.0
 11
354.5441516296335
 21
189.2060156171363
 31
0.0
  0
LINE
  5
174
330
170
100
AcDbEntity
  8
2
  6
HIDDEN
 62
   134
370
     9
100
AcDbLine
 10
359.5441516296312
 20
194.2060156171385
 30
0.0
 11
349.5441516296312
 21
194.2060156171385
 31
0.0
  0
ENDBLK
  5
172
330
170
100
AcDbEntity
  8
0
100
AcDbBlockEnd
  0
BLOCK
  5
177
330
176
100
AcDbEntity
  8
0
100
AcDbBlockBegin
  2
*G33
 70
     1
 10
0.0
 20
0.0
 30
0.0
  3
*G33
  1

  0
LINE
  5
179
330
176
100
AcDbEntity
  8
2
  6
HIDDEN
 62
   134
370
     9
100
AcDbLine
 10
375.4447619629544
 20
132.0702912725355
 30
0.0
 11
375.4447619629544
 21
122.0702912725355
 31
0.0
  0
LINE
  5
17A
330
176
100
AcDbEntity
  8
2
  6
HIDDEN
 62
   134
370
     9
100
AcDbLine
 10
380.444761962953
 20
127.0702912725374
 30
0.0
 11
370.444761962953
 21
127.0702912725374
 31
0.0
  0
ENDBLK
  5
178
330
176
100
AcDbEntity
  8
0
100
AcDbBlockEnd
  0
BLOCK
  5
17D
330
17C
100
AcDbEntity
  8
0
100
AcDbBlockBegin
  2
*G34
 70
     1
 10
0.0
 20
0.0
 30
0.0
  3
*G34
  1

  0
LINE
  5
17F
330
17C
100
AcDbEntity
  8
2
  6
HIDDEN
 62
   134
370
     9
100
AcDbLine
 10
342.1199263509014
 20
71.75950956619818
 30
0.0
 11
342.1199263509014
 21
61.75950956619818
 31
0.0
  0
LINE
  5
180
330
17C
100
AcDbEntity
  8
2
  6
HIDDEN
 62
   134
370
     9
100
AcDbLine
 10
347.1199263509
 20
66.7595095662
 30
0.0
 11
337.1199263509
 21
66.7595095662
 31
0.0
  0
ENDBLK
  5
17E
330
17C
100
AcDbEntity
  8
0
100
AcDbBlockEnd
  0
BLOCK
  5
183
330
182
100
AcDbEntity
  8
0
100
AcDbBlockBegin
  2
*G35
 70
     1
 10
0.0
 20
0.0
 30
0.0
  3
*G35
  1

  0
LINE
  5
185
330
182
100
AcDbEntity
  8
2
  6
HIDDEN
 62
   134
370
     9
100
AcDbLine
 10
287.1725955935035
 20
42.76367897751334
 30
0.0
 11
287.1725955935035
 21
32.76367897751334
 31
0.0
  0
LINE
  5
186
330
182
100
AcDbEntity
  8
2
  6
HIDDEN
 62
   134
370
     9
100
AcDbLine
 10
292.1725955935021
 20
37.76367897751516
 30
0.0
 11
282.1725955935021
 21
37.76367897751516
 31
0.0
  0
ENDBLK
  5
184
330
182
100
AcDbEntity
  8
0
100
AcDbBlockEnd
  0
BLOCK
  5
189
330
188
100
AcDbEntity
  8
0
100
AcDbBlockBegin
  2
*G36
 70
     1
 10
0.0
 20
0.0
 30
0.0
  3
*G36
  1

  0
LINE
  5
18B
330
188
100
AcDbEntity
  8
2
  6
HIDDEN
 62
   134
370
     9
100
AcDbLine
 10
225.8278476891414
 20
242.8334877480542
 30
0.0
 11
225.8278476891414
 21
232.8334877480542
 31
0.0
  0
LINE
  5
18C
330
188
100
AcDbEntity
  8
2
  6
HIDDEN
 62
   134
370
     9
100
AcDbLine
 10
230.8278476891392
 20
237.833487748056
 30
0.0
 11
220.8278476891392
 21
237.833487748056
 31
0.0
  0
ENDBLK
  5
18A
330
188
100
AcDbEntity
  8
0
100
AcDbBlockEnd
  0
BLOCK
  5
18F
330
18E
100
AcDbEntity
  8
0
100
AcDbBlockBegin
  2
*G37
 70
     1
 10
0.0
 20
0.0
 30
0.0
  3
*G37
  1

  0
LINE
  5
191
330
18E
100
AcDbEntity
  8
2
  6
HIDDEN
 62
   134
370
     9
100
AcDbLine
 10
219.257933266179
 20
282.3228546334849
 30
0.0
 11
219.257933266179
 21
272.3228546334849
 31
0.0
  0
LINE
  5
192
330
18E
100
AcDbEntity
  8
2
  6
HIDDEN
 62
   134
370
     9
100
AcDbLine
 10
224.2579332661768
 20
277.3228546334867
 30
0.0
 11
214.2579332661768
 21
277.3228546334867
 31
0.0
  0
ENDBLK
  5
190
330
18E
100
AcDbEntity
  8
0
100
AcDbBlockEnd
  0
BLOCK
  5
195
330
194
100
AcDbEntity
  8
0
100
AcDbBlockBegin
  2
*G38
 70
     1
 10
0.0
 20
0.0
 30
0.0
  3
*G38
  1

  0
LINE
  5
197
330
194
100
AcDbEntity
  8
2
  6
HIDDEN
 62
   134
370
     9
100
AcDbLine
 10
225.8278476891301
 20
13.08764384275237
 30
0.0
 11
225.8278476891301
 21
3.087643842752368
 31
0.0
  0
LINE
  5
198
330
194
100
AcDbEntity
  8
2
  6
HIDDEN
 62
   134
370
     9
100
AcDbLine
 10
230.8278476891279
 20
8.087643842754188
 30
0.0
 11
220.8278476891279
 21
8.087643842754188
 31
0.0
  0
ENDBLK
  5
196
330
194
100
AcDbEntity
  8
0
100
AcDbBlockEnd
  0
BLOCK
  5
19B
330
19A
100
AcDbEntity
  8
0
100
AcDbBlockBegin
  2
*G39
 70
     1
 10
0.0
 20
0.0
 30
0.0
  3
*G39
  1

  0
LINE
  5
19D
330
19A
100
AcDbEntity
  8
2
  6
HIDDEN
 62
   134
370
     9
100
AcDbLine
 10
241.8808259033042
 20
65.94977735308785
 30
0.0
 11
241.8808259033042
 21
55.94977735308785
 31
0.0
  0
LINE
  5
19E
330
19A
100
AcDbEntity
  8
2
  6
HIDDEN
 62
   134
370
     9
100
AcDbLine
 10
246.880825903302
 20
60.94977735308967
 30
0.0
 11
236.880825903302
 21
60.94977735308967
 31
0.0
  0
ENDBLK
  5
19C
330
19A
100
AcDbEntity
  8
0
100
AcDbBlockEnd
  0
BLOCK
  5
1A1
330
1A0
100
AcDbEntity
  8
0
100
AcDbBlockBegin
  2
*G40
 70
     1
 10
0.0
 20
0.0
 30
0.0
  3
*G40
  1

  0
LINE
  5
1A3
330
1A0
100
AcDbEntity
  8
2
  6
HIDDEN
 62
   134
370
     9
100
AcDbLine
 10
246.3965232323146
 20
186.595392875377
 30
0.0
 11
246.3965232323146
 21
176.595392875377
 31
0.0
  0
LINE
  5
1A4
330
1A0
100
AcDbEntity
  8
2
  6
HIDDEN
 62
   134
370
     9
100
AcDbLine
 10
251.3965232323124
 20
181.5953928753788
 30
0.0
 11
241.3965232323124
 21
181.5953928753788
 31
0.0
  0
ENDBLK
  5
1A2
330
1A0
100
AcDbEntity
  8
0
100
AcDbBlockEnd
  0
BLOCK
  5
1A7
330
1A6
100
AcDbEntity
  8
0
100
AcDbBlockBegin
  2
*G41
 70
     1
 10
0.0
 20
0.0
 30
0.0
  3
*G41
  1

  0
LINE
  5
1A9
330
1A6
100
AcDbEntity
  8
2
  6
HIDDEN
 62
   134
370
     9
100
AcDbLine
 10
281.29234577387
 20
144.7321444449422
 30
0.0
 11
281.29234577387
 21
134.7321444449422
 31
0.0
  0
LINE
  5
1AA
330
1A6
100
AcDbEntity
  8
2
  6
HIDDEN
 62
   134
370
     9
100
AcDbLine
 10
286.2923457738678
 20
139.7321444449441
 30
0.0
 11
276.2923457738678
 21
139.7321444449441
 31
0.0
  0
ENDBLK
  5
1A8
330
1A6
100
AcDbEntity
  8
0
100
AcDbBlockEnd
  0
BLOCK
  5
1AD
330
1AC
100
AcDbEntity
  8
0
100
AcDbBlockBegin
  2
*G42
 70
     1
 10
0.0
 20
0.0
 30
0.0
  3
*G42
  1

  0
LINE
  5
1AF
330
1AC
100
AcDbEntity
  8
2
  6
HIDDEN
 62
   134
370
     9
100
AcDbLine
 10
314.5147751537956
 20
151.8599596150132
 30
0.0
 11
314.5147751537956
 21
141.8599596150132
 31
0.0
  0
LINE
  5
1B0
330
1AC
100
AcDbEntity
  8
2
  6
HIDDEN
 62
   134
370
     9
100
AcDbLine
 10
319.5147751537934
 20
146.859959615015
 30
0.0
 11
309.5147751537934
 21
146.859959615015
 31
0.0
  0
ENDBLK
  5
1AE
330
1AC
100
AcDbEntity
  8
0
100
AcDbBlockEnd
  0
BLOCK
  5
1B3
330
1B2
100
AcDbEntity
  8
0
100
AcDbBlockBegin
  2
*G43
 70
     1
 10
0.0
 20
0.0
 30
0.0
  3
*G43
  1

  0
LINE
  5
1B5
330
1B2
100
AcDbEntity
  8
2
  6
HIDDEN
 62
   134
370
     9
100
AcDbLine
 10
249.5739813516662
 20
148.9971897240612
 30
0.0
 11
249.5739813516662
 21
138.9971897240612
 31
0.0
  0
LINE
  5
1B6
330
1B2
100
AcDbEntity
  8
2
  6
HIDDEN
 62
   134
370
     9
100
AcDbLine
 10
254.5739813516641
 20
143.997189724063
 30
0.0
 11
244.5739813516641
 21
143.997189724063
 31
0.0
  0
ENDBLK
  5
1B4
330
1B2
100
AcDbEntity
  8
0
100
AcDbBlockEnd
  0
BLOCK
  5
1C1
330
1C0
100
AcDbEntity
  8
0
100
AcDbBlockBegin
  2
*G44
 70
     1
 10
0.0
 20
0.0
 30
0.0
  3
*G44
  1

  0
MTEXT
  5
1C3
330
1C0
100
AcDbEntity
  8
2
  6
Continuous
 62
   134
370
     9
100
AcDbMText
 10
312.7950652438893
 20
231.7019562410176
 30
0.0
 40
6.0
 41
50.38723455671501
 71
     7
 72
     1
  1
{\fＭＳ ゴシック;\W0.714286;二段座ｸﾞﾘ外径}
 73
     1
 44
1.0
1001
ACAD
1000
ACAD_MTEXT_DEFINED_HEIGHT_BEGIN
1070
    46
1040
6.0
1000
ACAD_MTEXT_DEFINED_HEIGHT_END
  0
INSERT
  5
1C4
330
1C0
100
AcDbEntity
  8
2
  6
Continuous
 62
   134
370
     9
100
AcDbBlockReference
  2
_CLOSED
 10
300.5082807756397
 20
225.3063152065988
 30
0.0
 41
8.0
 42
8.0
 43
8.0
 50
207.498333840559
  0
POLYLINE
  5
1C5
330
1C0
100
AcDbEntity
  8
2
  6
Continuous
 62
   134
370
     9
100
AcDb2dPolyline
 66
     1
 10
0.0
 20
0.0
 30
0.0
  0
VERTEX
  5
1C6
330
1C5
100
AcDbEntity
  8
2
  6
Continuous
 62
   134
370
     9
100
AcDbVertex
100
AcDb2dVertex
 10
300.5082807756397
 20
225.3063152065988
 30
0.0
  0
VERTEX
  5
1C7
330
1C5
100
AcDbEntity
  8
2
  6
Continuous
 62
   134
370
     9
100
AcDbVertex
100
AcDb2dVertex
 10
312.7950652438893
 20
231.7019562410176
 30
0.0
  0
VERTEX
  5
1C8
330
1C5
100
AcDbEntity
  8
2
  6
Continuous
 62
   134
370
     9
100
AcDbVertex
100
AcDb2dVertex
 10
351.7950652438893
 20
231.7019562410176
 30
0.0
  0
SEQEND
  5
1C9
330
1C5
100
AcDbEntity
  8
2
  6
Continuous
 62
   134
370
     9
  0
MTEXT
  5
1CA
330
1C0
100
AcDbEntity
  8
2
  6
Continuous
 62
   134
370
     9
100
AcDbMText
 10
312.7950652438893
 20
238.1397442590973
 30
0.0
 40
6.0
 41
50.17025444169812
 71
     7
 72
     1
  1
{\fＭＳ ゴシック;\W0.714286;KMC6****-3N用}
 73
     1
 44
1.0
1001
ACAD
1000
ACAD_MTEXT_DEFINED_HEIGHT_BEGIN
1070
    46
1040
6.0
1000
ACAD_MTEXT_DEFINED_HEIGHT_END
  0
ENDBLK
  5
1C2
330
1C0
100
AcDbEntity
  8
0
100
AcDbBlockEnd
  0
BLOCK
  5
1CE
330
1CD
100
AcDbEntity
  8
0
100
AcDbBlockBegin
  2
Dim1
 70
     0
 10
0.0
 20
0.0
 30
0.0
  3
Dim1
  1

  0
LINE
  5
1D0
330
1CD
100
AcDbEntity
  8
2
  6
Continuous
 62
   134
370
     9
100
AcDbLine
 10
242.1112607745265
 20
146.0876009004387
 30
0.0
 11
275.0780210006371
 21
146.0876009004387
 31
0.0
  0
LINE
  5
1D1
330
1CD
100
AcDbEntity
  8
2
  6
Continuous
 62
   134
370
     9
100
AcDbLine
 10
242.1112607745265
 20
143.9971897240619
 30
0.0
 11
275.0780210006371
 21
143.9971897240619
 31
0.0
  0
LINE
  5
1D2
330
1CD
100
AcDbEntity
  8
2
  6
Continuous
 62
   134
370
     9
100
AcDbLine
 10
274.5780210006371
 20
162.1224286401346
 30
0.0
 11
274.5780210006371
 21
143.9971897240619
 31
0.0
  0
MTEXT
  5
1D3
330
1CD
100
AcDbEntity
  8
2
  6
Continuous
 62
   134
370
     9
100
AcDbMText
 10
274.5780210006371
 20
146.1224286401346
 30
0.0
 40
8.0
 41
120.0
 71
     7
 72
     1
  1
2.09
  7
ＭＳ ゴシック
 11
1.615544574432587E-15
 21
1.0
 31
0.0
 73
     1
 44
1.0
1001
ACAD
1000
ACAD_MTEXT_DEFINED_HEIGHT_BEGIN
1070
    46
1040
8.0
1000
ACAD_MTEXT_DEFINED_HEIGHT_END
  0
INSERT
  5
1D4
330
1CD
100
AcDbEntity
  8
2
  6
Continuous
 62
   134
370
     9
100
AcDbBlockReference
  2
_DOT
 10
274.5780210006371
 20
146.0876009004387
 30
0.0
 41
0.6000000000000001
 42
0.6000000000000001
 43
0.6000000000000001
 50
89.99999999999991
  0
INSERT
  5
1D5
330
1CD
100
AcDbEntity
  8
2
  6
Continuous
 62
   134
370
     9
100
AcDbBlockReference
  2
_DOT
 10
274.5780210006371
 20
143.9971897240619
 30
0.0
 41
0.6000000000000001
 42
0.6000000000000001
 43
0.6000000000000001
 50
269.9999999999998
  0
ENDBLK
  5
1CF
330
1CD
100
AcDbEntity
  8
0
100
AcDbBlockEnd
  0
BLOCK
  5
1D8
330
1D7
100
AcDbEntity
  8
0
100
AcDbBlockBegin
  2
Dim2
 70
     0
 10
0.0
 20
0.0
 30
0.0
  3
Dim2
  1

  0
LINE
  5
1DA
330
1D7
100
AcDbEntity
  8
2
  6
Continuous
 62
   134
370
    25
100
AcDbLine
 10
74.64657130836822
 20
103.2524678377416
 30
0.0
 11
162.3633496043942
 21
139.7321444449408
 31
0.0
  0
MTEXT
  5
1DB
330
1D7
100
AcDbEntity
  8
2
  6
Continuous
 62
   134
370
     9
100
AcDbMText
 10
118.5049604563814
 20
121.4923061413414
 30
0.0
 40
8.0
 41
102.8571428571428
 71
     8
 72
     1
  1
R95
  7
ＭＳ ゴシック
 11
0.9233345083792218
 21
0.3839965958652509
 31
0.0
 73
     1
 44
1.0
1001
ACAD
1000
ACAD_MTEXT_DEFINED_HEIGHT_BEGIN
1070
    46
1040
8.0
1000
ACAD_MTEXT_DEFINED_HEIGHT_END
  0
INSERT
  5
1DC
330
1D7
100
AcDbEntity
  8
2
  6
Continuous
 62
   134
370
    25
100
AcDbBlockReference
  2
_OPEN
 10
74.64657130836822
 20
103.2524678377416
 30
0.0
 41
8.0
 42
8.0
 43
8.0
 50
202.5814618252461
  0
ENDBLK
  5
1D9
330
1D7
100
AcDbEntity
  8
0
100
AcDbBlockEnd
  0
BLOCK
  5
1DF
330
1DE
100
AcDbEntity
  8
0
100
AcDbBlockBegin
  2
Dim3
 70
     0
 10
0.0
 20
0.0
 30
0.0
  3
Dim3
  1

  0
LINE
  5
1E1
330
1DE
100
AcDbEntity
  8
2
  6
Continuous
 62
   134
370
    25
100
AcDbLine
 10
75.22214417420328
 20
177.4665861726924
 30
0.0
 11
129.1409202244686
 21
146.8599596150118
 31
0.0
  0
MTEXT
  5
1E2
330
1DE
100
AcDbEntity
  8
2
  6
Continuous
 62
   134
370
     9
100
AcDbMText
 10
102.1815321993359
 20
162.1632728938523
 30
0.0
 40
8.0
 41
102.8571428571428
 71
     8
 72
     1
  1
R62
  7
ＭＳ ゴシック
 11
0.8696576782300888
 21
-0.4936552670593634
 31
0.0
 73
     1
 44
1.0
1001
ACAD
1000
ACAD_MTEXT_DEFINED_HEIGHT_BEGIN
1070
    46
1040
8.0
1000
ACAD_MTEXT_DEFINED_HEIGHT_END
  0
INSERT
  5
1E3
330
1DE
100
AcDbEntity
  8
2
  6
Continuous
 62
   134
370
    25
100
AcDbBlockReference
  2
_OPEN
 10
75.22214417420328
 20
177.4665861726924
 30
0.0
 41
8.0
 42
8.0
 43
8.0
 50
150.4188838437333
  0
ENDBLK
  5
1E0
330
1DE
100
AcDbEntity
  8
0
100
AcDbBlockEnd
  0
BLOCK
  5
1E6
330
1E5
100
AcDbEntity
  8
0
100
AcDbBlockBegin
  2
Dim4
 70
     0
 10
0.0
 20
0.0
 30
0.0
  3
Dim4
  1

  0
LINE
  5
1E8
330
1E5
100
AcDbEntity
  8
2
  6
Continuous
 62
   134
370
    25
100
AcDbLine
 10
67.31405234871782
 20
136.2550846554976
 30
0.0
 11
194.0778476891355
 21
143.9971897240619
 31
0.0
  0
MTEXT
  5
1E9
330
1E5
100
AcDbEntity
  8
2
  6
Continuous
 62
   134
370
     9
100
AcDbMText
 10
91.0056183951012
 20
137.7020482232682
 30
0.0
 40
8.0
 41
140.952380952381
 71
     2
 72
     1
  1
R127
  7
ＭＳ ゴシック
 11
0.9981401207906906
 21
0.06096145723279257
 31
0.0
 73
     1
 44
1.0
1001
ACAD
1000
ACAD_MTEXT_DEFINED_HEIGHT_BEGIN
1070
    46
1040
8.0
1000
ACAD_MTEXT_DEFINED_HEIGHT_END
  0
INSERT
  5
1EA
330
1E5
100
AcDbEntity
  8
2
  6
Continuous
 62
   134
370
    25
100
AcDbBlockReference
  2
_OPEN
 10
67.31405234871782
 20
136.2550846554976
 30
0.0
 41
8.0
 42
8.0
 43
8.0
 50
183.4950012412341
  0
ENDBLK
  5
1E7
330
1E5
100
AcDbEntity
  8
0
100
AcDbBlockEnd
  0
BLOCK
  5
1ED
330
1EC
100
AcDbEntity
  8
0
100
AcDbBlockBegin
  2
Dim5
 70
     0
 10
0.0
 20
0.0
 30
0.0
  3
Dim5
  1

  0
LINE
  5
1EF
330
1EC
100
AcDbEntity
  8
2
  6
Continuous
 62
   134
370
    25
100
AcDbLine
 10
112.4228850375352
 20
210.83797861354
 30
0.0
 11
201.77486947496
 21
60.9497773530864
 31
0.0
  0
MTEXT
  5
1F0
330
1EC
100
AcDbEntity
  8
2
  6
Continuous
 62
   134
370
     9
100
AcDbMText
 10
138.2969646648591
 20
167.4341384075582
 30
0.0
 40
8.0
 41
198.0952380952381
 71
     8
 72
     1
  1
R174.5
  7
ＭＳ ゴシック
 11
0.512045756088397
 21
-0.858958173412339
 31
0.0
 73
     1
 44
1.0
1001
ACAD
1000
ACAD_MTEXT_DEFINED_HEIGHT_BEGIN
1070
    46
1040
8.0
1000
ACAD_MTEXT_DEFINED_HEIGHT_END
  0
INSERT
  5
1F1
330
1EC
100
AcDbEntity
  8
2
  6
Continuous
 62
   134
370
    25
100
AcDbBlockReference
  2
_OPEN
 10
112.4228850375352
 20
210.83797861354
 30
0.0
 41
8.0
 42
8.0
 43
8.0
 50
120.8001928550396
  0
ENDBLK
  5
1EE
330
1EC
100
AcDbEntity
  8
0
100
AcDbBlockEnd
  0
BLOCK
  5
1F4
330
1F3
100
AcDbEntity
  8
0
100
AcDbBlockBegin
  2
Dim6
 70
     0
 10
0.0
 20
0.0
 30
0.0
  3
Dim6
  1

  0
LINE
  5
1F6
330
1F3
100
AcDbEntity
  8
2
  6
Continuous
 62
   134
370
    25
100
AcDbLine
 10
126.537507659939
 20
49.88094350732717
 30
0.0
 11
197.2591721459496
 21
181.5953928753756
 31
0.0
  0
MTEXT
  5
1F7
330
1F3
100
AcDbEntity
  8
2
  6
Continuous
 62
   134
370
     9
100
AcDbMText
 10
156.361678331254
 20
105.4265001112443
 30
0.0
 40
8.0
 41
198.0952380952381
 71
     8
 72
     1
  1
R149.5
  7
ＭＳ ゴシック
 11
0.4730546119465564
 21
0.8810331061407926
 31
0.0
 73
     1
 44
1.0
1001
ACAD
1000
ACAD_MTEXT_DEFINED_HEIGHT_BEGIN
1070
    46
1040
8.0
1000
ACAD_MTEXT_DEFINED_HEIGHT_END
  0
INSERT
  5
1F8
330
1F3
100
AcDbEntity
  8
2
  6
Continuous
 62
   134
370
    25
100
AcDbBlockReference
  2
_OPEN
 10
126.537507659939
 20
49.88094350732717
 30
0.0
 41
8.0
 42
8.0
 43
8.0
 50
241.7672385956698
  0
ENDBLK
  5
1F5
330
1F3
100
AcDbEntity
  8
0
100
AcDbBlockEnd
  0
BLOCK
  5
1FB
330
1FA
100
AcDbEntity
  8
0
100
AcDbBlockBegin
  2
Dim7
 70
     0
 10
0.0
 20
0.0
 30
0.0
  3
Dim7
  1

  0
LINE
  5
1FD
330
1FA
100
AcDbEntity
  8
2
  6
Continuous
 62
   134
370
    25
100
AcDbLine
 10
181.2916856787117
 20
234.9097363675068
 30
0.0
 11
217.8278476891341
 21
8.087643842750913
 31
0.0
  0
MTEXT
  5
1FE
330
1FA
100
AcDbEntity
  8
2
  6
Continuous
 62
   134
370
     9
100
AcDbMText
 10
185.9588413104011
 20
205.9353190158283
 30
0.0
 40
8.0
 41
236.1904761904762
 71
     8
 72
     1
  1
R229.75
  7
ＭＳ ゴシック
 11
0.1590286091333269
 21
-0.9872739748808937
 31
0.0
 73
     1
 44
1.0
1001
ACAD
1000
ACAD_MTEXT_DEFINED_HEIGHT_BEGIN
1070
    46
1040
8.0
1000
ACAD_MTEXT_DEFINED_HEIGHT_END
  0
INSERT
  5
1FF
330
1FA
100
AcDbEntity
  8
2
  6
Continuous
 62
   134
370
    25
100
AcDbBlockReference
  2
_OPEN
 10
181.2916856787117
 20
234.9097363675068
 30
0.0
 41
8.0
 42
8.0
 43
8.0
 50
99.15051773022496
  0
ENDBLK
  5
1FC
330
1FA
100
AcDbEntity
  8
0
100
AcDbBlockEnd
  0
BLOCK
  5
202
330
201
100
AcDbEntity
  8
0
100
AcDbBlockBegin
  2
Dim8
 70
     0
 10
0.0
 20
0.0
 30
0.0
  3
Dim8
  1

  0
LINE
  5
204
330
201
100
AcDbEntity
  8
2
  6
Continuous
 62
   134
370
    25
100
AcDbLine
 10
187.6558234861812
 20
31.04855644950658
 30
0.0
 11
224.3977621120852
 21
277.3228546334835
 31
0.0
  0
MTEXT
  5
205
330
201
100
AcDbEntity
  8
2
  6
Continuous
 62
   134
370
     9
100
AcDbMText
 10
191.8094195450984
 20
58.88932894560858
 30
0.0
 40
8.0
 41
139.047619047619
 71
     8
 72
     1
  1
R249
  7
ＭＳ ゴシック
 11
0.1475579864494108
 21
0.9890534063613529
 31
0.0
 73
     1
 44
1.0
1001
ACAD
1000
ACAD_MTEXT_DEFINED_HEIGHT_BEGIN
1070
    46
1040
8.0
1000
ACAD_MTEXT_DEFINED_HEIGHT_END
  0
INSERT
  5
206
330
201
100
AcDbEntity
  8
2
  6
Continuous
 62
   134
370
    25
100
AcDbBlockReference
  2
_OPEN
 10
187.6558234861812
 20
31.04855644950658
 30
0.0
 41
8.0
 42
8.0
 43
8.0
 50
261.5145652866494
  0
ENDBLK
  5
203
330
201
100
AcDbEntity
  8
0
100
AcDbBlockEnd
  0
BLOCK
  5
209
330
208
100
AcDbEntity
  8
0
100
AcDbBlockBegin
  2
Dim9
 70
     0
 10
0.0
 20
0.0
 30
0.0
  3
Dim9
  1

  0
LINE
  5
20B
330
208
100
AcDbEntity
  8
2
  6
Continuous
 62
   134
370
    25
100
AcDbLine
 10
151.0697937560508
 20
234.9205690992472
 30
0.0
 11
151.0697937560508
 21
247.833487748056
 31
0.0
  0
LINE
  5
20C
330
208
100
AcDbEntity
  8
2
  6
Continuous
 62
   134
370
    25
100
AcDbLine
 10
217.8278476891282
 20
244.8334877480542
 30
0.0
 11
217.8278476891282
 21
247.833487748056
 31
0.0
  0
LINE
  5
20D
330
208
100
AcDbEntity
  8
2
  6
Continuous
 62
   134
370
    25
100
AcDbLine
 10
151.0697937560508
 20
247.833487748056
 30
0.0
 11
217.8278476891282
 21
247.833487748056
 31
0.0
  0
MTEXT
  5
20E
330
208
100
AcDbEntity
  8
2
  6
Continuous
 62
   134
370
     9
100
AcDbMText
 10
184.4488207225899
 20
247.833487748056
 30
0.0
 40
8.0
 41
158.0952380952381
 71
     8
 72
     1
  1
66.76
  7
ＭＳ ゴシック
 73
     1
 44
1.0
1001
ACAD
1000
ACAD_MTEXT_DEFINED_HEIGHT_BEGIN
1070
    46
1040
8.0
1000
ACAD_MTEXT_DEFINED_HEIGHT_END
  0
INSERT
  5
20F
330
208
100
AcDbEntity
  8
2
  6
Continuous
 62
   134
370
    25
100
AcDbBlockReference
  2
_DOT
 10
151.0697937560508
 20
247.833487748056
 30
0.0
 41
0.6000000000000001
 42
0.6000000000000001
 43
0.6000000000000001
 50
179.9999999999998
  0
INSERT
  5
210
330
208
100
AcDbEntity
  8
2
  6
Continuous
 62
   134
370
    25
100
AcDbBlockReference
  2
_DOT
 10
217.8278476891282
 20
247.833487748056
 30
0.0
 41
0.6000000000000001
 42
0.6000000000000001
 43
0.6000000000000001
 50
359.9999999999997
  0
ENDBLK
  5
20A
330
208
100
AcDbEntity
  8
0
100
AcDbBlockEnd
  0
BLOCK
  5
213
330
212
100
AcDbEntity
  8
0
100
AcDbBlockBegin
  2
Dim10
 70
     0
 10
0.0
 20
0.0
 30
0.0
  3
Dim10
  1

  0
LINE
  5
215
330
212
100
AcDbEntity
  8
2
  6
Continuous
 62
   134
370
    25
100
AcDbLine
 10
89.11154374863618
 20
201.2060156171363
 30
0.0
 11
89.11154374863618
 21
247.833487748056
 31
0.0
  0
LINE
  5
216
330
212
100
AcDbEntity
  8
2
  6
Continuous
 62
   134
370
    25
100
AcDbLine
 10
151.0697937560508
 20
234.9205690992472
 30
0.0
 11
151.0697937560508
 21
247.833487748056
 31
0.0
  0
LINE
  5
217
330
212
100
AcDbEntity
  8
2
  6
Continuous
 62
   134
370
    25
100
AcDbLine
 10
89.11154374863618
 20
247.833487748056
 30
0.0
 11
151.0697937560508
 21
247.833487748056
 31
0.0
  0
MTEXT
  5
218
330
212
100
AcDbEntity
  8
2
  6
Continuous
 62
   134
370
     9
100
AcDbMText
 10
120.0906687523435
 20
247.833487748056
 30
0.0
 40
8.0
 41
158.0952380952381
 71
     8
 72
     1
  1
61.96
  7
ＭＳ ゴシック
 73
     1
 44
1.0
1001
ACAD
1000
ACAD_MTEXT_DEFINED_HEIGHT_BEGIN
1070
    46
1040
8.0
1000
ACAD_MTEXT_DEFINED_HEIGHT_END
  0
INSERT
  5
219
330
212
100
AcDbEntity
  8
2
  6
Continuous
 62
   134
370
    25
100
AcDbBlockReference
  2
_DOT
 10
89.11154374863618
 20
247.833487748056
 30
0.0
 41
0.6000000000000001
 42
0.6000000000000001
 43
0.6000000000000001
 50
179.9999999999998
  0
INSERT
  5
21A
330
212
100
AcDbEntity
  8
2
  6
Continuous
 62
   134
370
    25
100
AcDbBlockReference
  2
_DOT
 10
151.0697937560508
 20
247.833487748056
 30
0.0
 41
0.6000000000000001
 42
0.6000000000000001
 43
0.6000000000000001
 50
359.9999999999997
  0
ENDBLK
  5
214
330
212
100
AcDbEntity
  8
0
100
AcDbBlockEnd
  0
BLOCK
  5
21D
330
21C
100
AcDbEntity
  8
0
100
AcDbBlockBegin
  2
Dim11
 70
     0
 10
0.0
 20
0.0
 30
0.0
  3
Dim11
  1

  0
LINE
  5
21F
330
21C
100
AcDbEntity
  8
2
  6
Continuous
 62
   134
370
    25
100
AcDbLine
 10
67.20108171970423
 20
156.5906016648762
 30
0.0
 11
67.20108171970423
 21
247.833487748056
 31
0.0
  0
LINE
  5
220
330
21C
100
AcDbEntity
  8
2
  6
Continuous
 62
   134
370
    25
100
AcDbLine
 10
89.11154374863618
 20
201.2060156171363
 30
0.0
 11
89.11154374863618
 21
247.833487748056
 31
0.0
  0
LINE
  5
221
330
21C
100
AcDbEntity
  8
2
  6
Continuous
 62
   134
370
    25
100
AcDbLine
 10
67.20108171970423
 20
247.833487748056
 30
0.0
 11
89.11154374863618
 21
247.833487748056
 31
0.0
  0
MTEXT
  5
222
330
21C
100
AcDbEntity
  8
2
  6
Continuous
 62
   134
370
     9
100
AcDbMText
 10
78.15631273417021
 20
247.833487748056
 30
0.0
 40
8.0
 41
148.5714285714286
 71
     8
 72
     1
  1
21.91
  7
ＭＳ ゴシック
 73
     1
 44
1.0
1001
ACAD
1000
ACAD_MTEXT_DEFINED_HEIGHT_BEGIN
1070
    46
1040
8.0
1000
ACAD_MTEXT_DEFINED_HEIGHT_END
  0
INSERT
  5
223
330
21C
100
AcDbEntity
  8
2
  6
Continuous
 62
   134
370
    25
100
AcDbBlockReference
  2
_DOT
 10
67.20108171970423
 20
247.833487748056
 30
0.0
 41
0.6000000000000001
 42
0.6000000000000001
 43
0.6000000000000001
 50
179.9999999999998
  0
INSERT
  5
224
330
21C
100
AcDbEntity
  8
2
  6
Continuous
 62
   134
370
    25
100
AcDbBlockReference
  2
_DOT
 10
89.11154374863618
 20
247.833487748056
 30
0.0
 41
0.6000000000000001
 42
0.6000000000000001
 43
0.6000000000000001
 50
359.9999999999997
  0
ENDBLK
  5
21E
330
21C
100
AcDbEntity
  8
0
100
AcDbBlockEnd
  0
BLOCK
  5
227
330
226
100
AcDbEntity
  8
0
100
AcDbBlockBegin
  2
Dim12
 70
     0
 10
0.0
 20
0.0
 30
0.0
  3
Dim12
  1

  0
LINE
  5
229
330
226
100
AcDbEntity
  8
2
  6
Continuous
 62
   134
370
     9
100
AcDbLine
 10
217.8278476891341
 20
242.7721981011906
 30
0.0
 11
217.8278476891341
 21
258.333487748056
 31
0.0
  0
LINE
  5
22A
330
226
100
AcDbEntity
  8
2
  6
Continuous
 62
   134
370
     9
100
AcDbLine
 10
67.0778476891348
 20
174.1171207560794
 30
0.0
 11
67.0778476891348
 21
258.333487748056
 31
0.0
  0
LINE
  5
22B
330
226
100
AcDbEntity
  8
2
  6
Continuous
 62
   134
370
     9
100
AcDbLine
 10
217.8278476891341
 20
257.833487748056
 30
0.0
 11
67.0778476891348
 21
257.833487748056
 31
0.0
  0
MTEXT
  5
22C
330
226
100
AcDbEntity
  8
2
  6
Continuous
 62
   134
370
     9
100
AcDbMText
 10
142.4528476891341
 20
257.833487748056
 30
0.0
 40
8.0
 41
192.3809523809524
 71
     8
 72
     1
  1
150.75
  7
ＭＳ ゴシック
 73
     1
 44
1.0
1001
ACAD
1000
ACAD_MTEXT_DEFINED_HEIGHT_BEGIN
1070
    46
1040
8.0
1000
ACAD_MTEXT_DEFINED_HEIGHT_END
  0
INSERT
  5
22D
330
226
100
AcDbEntity
  8
2
  6
Continuous
 62
   134
370
     9
100
AcDbBlockReference
  2
_DOT
 10
217.8278476891341
 20
257.833487748056
 30
0.0
 41
0.6000000000000001
 42
0.6000000000000001
 43
0.6000000000000001
 50
359.9999999999997
  0
INSERT
  5
22E
330
226
100
AcDbEntity
  8
2
  6
Continuous
 62
   134
370
     9
100
AcDbBlockReference
  2
_DOT
 10
67.0778476891348
 20
257.833487748056
 30
0.0
 41
0.6000000000000001
 42
0.6000000000000001
 43
0.6000000000000001
 50
179.9999999999998
  0
ENDBLK
  5
228
330
226
100
AcDbEntity
  8
0
100
AcDbBlockEnd
  0
BLOCK
  5
231
330
230
100
AcDbEntity
  8
0
100
AcDbBlockBegin
  2
Dim13
 70
     0
 10
0.0
 20
0.0
 30
0.0
  3
Dim13
  1

  0
LINE
  5
233
330
230
100
AcDbEntity
  8
2
  6
Continuous
 62
   134
370
     9
100
AcDbLine
 10
376.5778476891312
 20
162.1578492185439
 30
0.0
 11
376.5778476891312
 21
258.333487748056
 31
0.0
  0
LINE
  5
234
330
230
100
AcDbEntity
  8
2
  6
Continuous
 62
   134
370
     9
100
AcDbLine
 10
225.8278476891341
 20
242.6245527735668
 30
0.0
 11
225.8278476891341
 21
258.333487748056
 31
0.0
  0
LINE
  5
235
330
230
100
AcDbEntity
  8
2
  6
Continuous
 62
   134
370
     9
100
AcDbLine
 10
376.5778476891312
 20
257.833487748056
 30
0.0
 11
225.8278476891341
 21
257.833487748056
 31
0.0
  0
MTEXT
  5
236
330
230
100
AcDbEntity
  8
2
  6
Continuous
 62
   134
370
     9
100
AcDbMText
 10
301.2028476891319
 20
257.833487748056
 30
0.0
 40
8.0
 41
192.3809523809524
 71
     8
 72
     1
  1
150.75
  7
ＭＳ ゴシック
 73
     1
 44
1.0
1001
ACAD
1000
ACAD_MTEXT_DEFINED_HEIGHT_BEGIN
1070
    46
1040
8.0
1000
ACAD_MTEXT_DEFINED_HEIGHT_END
  0
INSERT
  5
237
330
230
100
AcDbEntity
  8
2
  6
Continuous
 62
   134
370
     9
100
AcDbBlockReference
  2
_DOT
 10
376.5778476891312
 20
257.833487748056
 30
0.0
 41
0.6000000000000001
 42
0.6000000000000001
 43
0.6000000000000001
 50
359.9999999999997
  0
INSERT
  5
238
330
230
100
AcDbEntity
  8
2
  6
Continuous
 62
   134
370
     9
100
AcDbBlockReference
  2
_DOT
 10
225.8278476891341
 20
257.833487748056
 30
0.0
 41
0.6000000000000001
 42
0.6000000000000001
 43
0.6000000000000001
 50
179.9999999999998
  0
ENDBLK
  5
232
330
230
100
AcDbEntity
  8
0
100
AcDbBlockEnd
  0
BLOCK
  5
23B
330
23A
100
AcDbEntity
  8
0
100
AcDbBlockBegin
  2
Dim14
 70
     0
 10
0.0
 20
0.0
 30
0.0
  3
Dim14
  1

  0
LINE
  5
23D
330
23A
100
AcDbEntity
  8
2
  6
Continuous
 62
   134
370
     9
100
AcDbLine
 10
217.8278476891348
 20
239.833487748056
 30
0.0
 11
217.8278476891348
 21
258.333487748056
 31
0.0
  0
LINE
  5
23E
330
23A
100
AcDbEntity
  8
2
  6
Continuous
 62
   134
370
     9
100
AcDbLine
 10
225.8278476891341
 20
239.833487748056
 30
0.0
 11
225.8278476891341
 21
258.333487748056
 31
0.0
  0
LINE
  5
23F
330
23A
100
AcDbEntity
  8
2
  6
Continuous
 62
   134
370
     9
100
AcDbLine
 10
217.8278476891348
 20
257.833487748056
 30
0.0
 11
225.8278476891341
 21
257.833487748056
 31
0.0
  0
MTEXT
  5
240
330
23A
100
AcDbEntity
  8
2
  6
Continuous
 62
   134
370
     9
100
AcDbMText
 10
221.8278476891348
 20
257.833487748056
 30
0.0
 40
8.0
 41
26.66666666666667
 71
     8
 72
     1
  1
8
  7
ＭＳ ゴシック
 73
     1
 44
1.0
1001
ACAD
1000
ACAD_MTEXT_DEFINED_HEIGHT_BEGIN
1070
    46
1040
8.0
1000
ACAD_MTEXT_DEFINED_HEIGHT_END
  0
INSERT
  5
241
330
23A
100
AcDbEntity
  8
2
  6
Continuous
 62
   134
370
     9
100
AcDbBlockReference
  2
_DOT
 10
217.8278476891348
 20
257.833487748056
 30
0.0
 41
0.6000000000000001
 42
0.6000000000000001
 43
0.6000000000000001
 50
179.9999999999998
  0
INSERT
  5
242
330
23A
100
AcDbEntity
  8
2
  6
Continuous
 62
   134
370
     9
100
AcDbBlockReference
  2
_DOT
 10
225.8278476891341
 20
257.833487748056
 30
0.0
 41
0.6000000000000001
 42
0.6000000000000001
 43
0.6000000000000001
 50
359.9999999999997
  0
ENDBLK
  5
23C
330
23A
100
AcDbEntity
  8
0
100
AcDbBlockEnd
  0
BLOCK
  5
245
330
244
100
AcDbEntity
  8
0
100
AcDbBlockBegin
  2
Dim15
 70
     0
 10
0.0
 20
0.0
 30
0.0
  3
Dim15
  1

  0
LINE
  5
247
330
244
100
AcDbEntity
  8
2
  6
Continuous
 62
   134
370
    25
100
AcDbLine
 10
67.20108171970423
 20
151.5906016648776
 30
0.0
 11
67.20108171970423
 21
247.833487748056
 31
0.0
  0
LINE
  5
248
330
244
100
AcDbEntity
  8
2
  6
Continuous
 62
   134
370
    25
100
AcDbLine
 10
67.07784768913552
 20
145.9971897240619
 30
0.0
 11
67.07784768913552
 21
247.833487748056
 31
0.0
  0
LINE
  5
249
330
244
100
AcDbEntity
  8
2
  6
Continuous
 62
   134
370
    25
100
AcDbLine
 10
67.20108171970423
 20
247.833487748056
 30
0.0
 11
48.65911798913911
 21
247.833487748056
 31
0.0
  0
MTEXT
  5
24A
330
244
100
AcDbEntity
  8
2
  6
Continuous
 62
   134
370
     9
100
AcDbMText
 10
64.65911798913912
 20
247.833487748056
 30
0.0
 40
8.0
 41
121.9047619047619
 71
     9
 72
     1
  1
0.12
  7
ＭＳ ゴシック
 73
     1
 44
1.0
1001
ACAD
1000
ACAD_MTEXT_DEFINED_HEIGHT_BEGIN
1070
    46
1040
8.0
1000
ACAD_MTEXT_DEFINED_HEIGHT_END
  0
INSERT
  5
24B
330
244
100
AcDbEntity
  8
2
  6
Continuous
 62
   134
370
    25
100
AcDbBlockReference
  2
_DOT
 10
67.20108171970423
 20
247.833487748056
 30
0.0
 41
0.6000000000000001
 42
0.6000000000000001
 43
0.6000000000000001
 50
179.9999999999995
  0
INSERT
  5
24C
330
244
100
AcDbEntity
  8
2
  6
Continuous
 62
   134
370
    25
100
AcDbBlockReference
  2
_DOT
 10
67.07784768913552
 20
247.833487748056
 30
0.0
 41
0.6000000000000001
 42
0.6000000000000001
 43
0.6000000000000001
 50
359.9999999999997
  0
ENDBLK
  5
246
330
244
100
AcDbEntity
  8
0
100
AcDbBlockEnd
  0
BLOCK
  5
24F
330
24E
100
AcDbEntity
  8
0
100
AcDbBlockBegin
  2
Dim16
 70
     0
 10
0.0
 20
0.0
 30
0.0
  3
Dim16
  1

  0
LINE
  5
251
330
24E
100
AcDbEntity
  8
2
  6
Continuous
 62
   134
370
     9
100
AcDbLine
 10
166.4695034176795
 20
237.833487748056
 30
0.0
 11
26.57784768913625
 21
237.8334877480564
 31
0.0
  0
LINE
  5
252
330
24E
100
AcDbEntity
  8
2
  6
Continuous
 62
   134
370
     9
100
AcDbLine
 10
166.4695034176795
 20
28.33611695482978
 30
0.0
 11
26.57784768913625
 21
28.33611695483014
 31
0.0
  0
LINE
  5
253
330
24E
100
AcDbEntity
  8
2
  6
Continuous
 62
   134
370
     9
100
AcDbLine
 10
27.07784768913625
 20
237.8334877480564
 30
0.0
 11
27.07784768913625
 21
28.33611695483014
 31
0.0
  0
MTEXT
  5
254
330
24E
100
AcDbEntity
  8
2
  6
Continuous
 62
   134
370
     9
100
AcDbMText
 10
27.07784768913625
 20
133.0848023514431
 30
0.0
 40
8.0
 41
160.0
 71
     8
 72
     1
  1
209.5
  7
ＭＳ ゴシック
 11
-1.608122649676637E-16
 21
1.0
 31
0.0
 73
     1
 44
1.0
1001
ACAD
1000
ACAD_MTEXT_DEFINED_HEIGHT_BEGIN
1070
    46
1040
8.0
1000
ACAD_MTEXT_DEFINED_HEIGHT_END
  0
INSERT
  5
255
330
24E
100
AcDbEntity
  8
2
  6
Continuous
 62
   134
370
     9
100
AcDbBlockReference
  2
_DOT
 10
27.07784768913625
 20
237.8334877480564
 30
0.0
 41
0.6000000000000001
 42
0.6000000000000001
 43
0.6000000000000001
 50
89.99999999999991
  0
INSERT
  5
256
330
24E
100
AcDbEntity
  8
2
  6
Continuous
 62
   134
370
     9
100
AcDbBlockReference
  2
_DOT
 10
27.07784768913625
 20
28.33611695483014
 30
0.0
 41
0.6000000000000001
 42
0.6000000000000001
 43
0.6000000000000001
 50
269.9999999999998
  0
ENDBLK
  5
250
330
24E
100
AcDbEntity
  8
0
100
AcDbBlockEnd
  0
BLOCK
  5
259
330
258
100
AcDbEntity
  8
0
100
AcDbBlockBegin
  2
Dim17
 70
     0
 10
0.0
 20
0.0
 30
0.0
  3
Dim17
  1

  0
LINE
  5
25B
330
258
100
AcDbEntity
  8
2
  6
Continuous
 62
   134
370
     9
100
AcDbLine
 10
65.06131075799858
 20
143.9971897240619
 30
0.0
 11
36.57784768913589
 21
143.9971897240619
 31
0.0
  0
LINE
  5
25C
330
258
100
AcDbEntity
  8
2
  6
Continuous
 62
   134
370
     9
100
AcDbLine
 10
164.2455601017355
 20
28.33611695482978
 30
0.0
 11
36.57784768913589
 21
28.33611695483014
 31
0.0
  0
LINE
  5
25D
330
258
100
AcDbEntity
  8
2
  6
Continuous
 62
   134
370
     9
100
AcDbLine
 10
37.07784768913589
 20
143.9971897240619
 30
0.0
 11
37.07784768913589
 21
28.33611695483014
 31
0.0
  0
MTEXT
  5
25E
330
258
100
AcDbEntity
  8
2
  6
Continuous
 62
   134
370
     9
100
AcDbMText
 10
37.07784768913589
 20
86.16665333944584
 30
0.0
 40
8.0
 41
192.3809523809524
 71
     8
 72
     1
  1
115.66
  7
ＭＳ ゴシック
 11
1.837589179357618E-15
 21
1.0
 31
0.0
 73
     1
 44
1.0
1001
ACAD
1000
ACAD_MTEXT_DEFINED_HEIGHT_BEGIN
1070
    46
1040
8.0
1000
ACAD_MTEXT_DEFINED_HEIGHT_END
  0
INSERT
  5
25F
330
258
100
AcDbEntity
  8
2
  6
Continuous
 62
   134
370
     9
100
AcDbBlockReference
  2
_DOT
 10
37.07784768913589
 20
143.9971897240619
 30
0.0
 41
0.6000000000000001
 42
0.6000000000000001
 43
0.6000000000000001
 50
89.9999999999999
  0
INSERT
  5
260
330
258
100
AcDbEntity
  8
2
  6
Continuous
 62
   134
370
     9
100
AcDbBlockReference
  2
_DOT
 10
37.07784768913589
 20
28.33611695483014
 30
0.0
 41
0.6000000000000001
 42
0.6000000000000001
 43
0.6000000000000001
 50
269.9999999999999
  0
ENDBLK
  5
25A
330
258
100
AcDbEntity
  8
0
100
AcDbBlockEnd
  0
BLOCK
  5
263
330
262
100
AcDbEntity
  8
0
100
AcDbBlockBegin
  2
Dim18
 70
     0
 10
0.0
 20
0.0
 30
0.0
  3
Dim18
  1

  0
LINE
  5
265
330
262
100
AcDbEntity
  8
2
  6
Continuous
 62
   134
370
     9
100
AcDbLine
 10
174.4422059185337
 20
237.833487748056
 30
0.0
 11
36.57784768913589
 21
237.8334877480564
 31
0.0
  0
LINE
  5
266
330
262
100
AcDbEntity
  8
2
  6
Continuous
 62
   134
370
     9
100
AcDbLine
 10
65.06131075799858
 20
143.9971897240619
 30
0.0
 11
36.57784768913589
 21
143.9971897240619
 31
0.0
  0
LINE
  5
267
330
262
100
AcDbEntity
  8
2
  6
Continuous
 62
   134
370
     9
100
AcDbLine
 10
37.07784768913589
 20
237.8334877480564
 30
0.0
 11
37.07784768913589
 21
143.9971897240619
 31
0.0
  0
MTEXT
  5
268
330
262
100
AcDbEntity
  8
2
  6
Continuous
 62
   134
370
     9
100
AcDbMText
 10
37.07784768913589
 20
190.9153387360595
 30
0.0
 40
8.0
 41
161.9047619047619
 71
     8
 72
     1
  1
93.84
  7
ＭＳ ゴシック
 11
2.725767599057743E-15
 21
1.0
 31
0.0
 73
     1
 44
1.0
1001
ACAD
1000
ACAD_MTEXT_DEFINED_HEIGHT_BEGIN
1070
    46
1040
8.0
1000
ACAD_MTEXT_DEFINED_HEIGHT_END
  0
INSERT
  5
269
330
262
100
AcDbEntity
  8
2
  6
Continuous
 62
   134
370
     9
100
AcDbBlockReference
  2
_DOT
 10
37.07784768913589
 20
237.8334877480564
 30
0.0
 41
0.6000000000000001
 42
0.6000000000000001
 43
0.6000000000000001
 50
89.99999999999984
  0
INSERT
  5
26A
330
262
100
AcDbEntity
  8
2
  6
Continuous
 62
   134
370
     9
100
AcDbBlockReference
  2
_DOT
 10
37.07784768913589
 20
143.9971897240619
 30
0.0
 41
0.6000000000000001
 42
0.6000000000000001
 43
0.6000000000000001
 50
269.9999999999998
  0
ENDBLK
  5
264
330
262
100
AcDbEntity
  8
0
100
AcDbBlockEnd
  0
BLOCK
  5
26D
330
26C
100
AcDbEntity
  8
0
100
AcDbBlockBegin
  2
Dim19
 70
     0
 10
0.0
 20
0.0
 30
0.0
  3
Dim19
  1

  0
LINE
  5
26F
330
26C
100
AcDbEntity
  8
2
  6
Continuous
 62
   134
370
     9
100
AcDbLine
 10
144.069793756053
 20
227.9205690992491
 30
0.0
 11
47.07784768913552
 21
227.9205690992494
 31
0.0
  0
LINE
  5
270
330
26C
100
AcDbEntity
  8
2
  6
Continuous
 62
   134
370
     9
100
AcDbLine
 10
82.11154374863837
 20
194.2060156171385
 30
0.0
 11
47.07784768913552
 21
194.2060156171385
 31
0.0
  0
LINE
  5
271
330
26C
100
AcDbEntity
  8
2
  6
Continuous
 62
   134
370
     9
100
AcDbLine
 10
47.07784768913552
 20
227.9205690992494
 30
0.0
 11
47.07784768913552
 21
194.2060156171385
 31
0.0
  0
MTEXT
  5
272
330
26C
100
AcDbEntity
  8
2
  6
Continuous
 62
   134
370
     9
100
AcDbMText
 10
47.07784768913552
 20
211.063292358194
 30
0.0
 40
8.0
 41
148.5714285714286
 71
     8
 72
     1
  1
33.71
  7
ＭＳ ゴシック
 11
1.615544574432587E-15
 21
1.0
 31
0.0
 73
     1
 44
1.0
1001
ACAD
1000
ACAD_MTEXT_DEFINED_HEIGHT_BEGIN
1070
    46
1040
8.0
1000
ACAD_MTEXT_DEFINED_HEIGHT_END
  0
INSERT
  5
273
330
26C
100
AcDbEntity
  8
2
  6
Continuous
 62
   134
370
     9
100
AcDbBlockReference
  2
_DOT
 10
47.07784768913552
 20
227.9205690992494
 30
0.0
 41
0.6000000000000001
 42
0.6000000000000001
 43
0.6000000000000001
 50
89.99999999999991
  0
INSERT
  5
274
330
26C
100
AcDbEntity
  8
2
  6
Continuous
 62
   134
370
     9
100
AcDbBlockReference
  2
_DOT
 10
47.07784768913552
 20
194.2060156171385
 30
0.0
 41
0.6000000000000001
 42
0.6000000000000001
 43
0.6000000000000001
 50
269.9999999999998
  0
ENDBLK
  5
26E
330
26C
100
AcDbEntity
  8
0
100
AcDbBlockEnd
  0
BLOCK
  5
277
330
276
100
AcDbEntity
  8
0
100
AcDbBlockBegin
  2
Dim20
 70
     0
 10
0.0
 20
0.0
 30
0.0
  3
Dim20
  1

  0
LINE
  5
279
330
276
100
AcDbEntity
  8
2
  6
Continuous
 62
   134
370
     9
100
AcDbLine
 10
82.11154374863837
 20
194.2060156171385
 30
0.0
 11
47.07784768913552
 21
194.2060156171385
 31
0.0
  0
LINE
  5
27A
330
276
100
AcDbEntity
  8
2
  6
Continuous
 62
   134
370
     9
100
AcDbLine
 10
60.20108171970642
 20
149.5906016648776
 30
0.0
 11
47.07784768913552
 21
149.5906016648776
 31
0.0
  0
LINE
  5
27B
330
276
100
AcDbEntity
  8
2
  6
Continuous
 62
   134
370
     9
100
AcDbLine
 10
47.07784768913552
 20
194.2060156171385
 30
0.0
 11
47.07784768913552
 21
149.5906016648776
 31
0.0
  0
MTEXT
  5
27C
330
276
100
AcDbEntity
  8
2
  6
Continuous
 62
   134
370
     9
100
AcDbMText
 10
47.07784768913552
 20
171.898308641008
 30
0.0
 40
8.0
 41
160.0
 71
     8
 72
     1
  1
44.62
  7
ＭＳ ゴシック
 11
1.615544574432587E-15
 21
1.0
 31
0.0
 73
     1
 44
1.0
1001
ACAD
1000
ACAD_MTEXT_DEFINED_HEIGHT_BEGIN
1070
    46
1040
8.0
1000
ACAD_MTEXT_DEFINED_HEIGHT_END
  0
INSERT
  5
27D
330
276
100
AcDbEntity
  8
2
  6
Continuous
 62
   134
370
     9
100
AcDbBlockReference
  2
_DOT
 10
47.07784768913552
 20
194.2060156171385
 30
0.0
 41
0.6000000000000001
 42
0.6000000000000001
 43
0.6000000000000001
 50
89.99999999999991
  0
INSERT
  5
27E
330
276
100
AcDbEntity
  8
2
  6
Continuous
 62
   134
370
     9
100
AcDbBlockReference
  2
_DOT
 10
47.07784768913552
 20
149.5906016648776
 30
0.0
 41
0.6000000000000001
 42
0.6000000000000001
 43
0.6000000000000001
 50
269.9999999999998
  0
ENDBLK
  5
278
330
276
100
AcDbEntity
  8
0
100
AcDbBlockEnd
  0
BLOCK
  5
281
330
280
100
AcDbEntity
  8
0
100
AcDbBlockBegin
  2
Dim21
 70
     0
 10
0.0
 20
0.0
 30
0.0
  3
Dim21
  1

  0
LINE
  5
283
330
280
100
AcDbEntity
  8
2
  6
Continuous
 62
   134
370
     9
100
AcDbLine
 10
61.21093341531669
 20
127.0702912725374
 30
0.0
 11
47.07784768913552
 21
127.0702912725374
 31
0.0
  0
LINE
  5
284
330
280
100
AcDbEntity
  8
2
  6
Continuous
 62
   134
370
     9
100
AcDbLine
 10
94.53576902736968
 20
66.7595095662
 30
0.0
 11
47.07784768913552
 21
66.7595095662
 31
0.0
  0
LINE
  5
285
330
280
100
AcDbEntity
  8
2
  6
Continuous
 62
   134
370
     9
100
AcDbLine
 10
47.07784768913552
 20
127.0702912725374
 30
0.0
 11
47.07784768913552
 21
66.7595095662
 31
0.0
  0
MTEXT
  5
286
330
280
100
AcDbEntity
  8
2
  6
Continuous
 62
   134
370
     9
100
AcDbMText
 10
47.07784768913552
 20
96.91490041936851
 30
0.0
 40
8.0
 41
146.6666666666666
 71
     8
 72
     1
  1
60.31
  7
ＭＳ ゴシック
 11
1.615544574432587E-15
 21
1.0
 31
0.0
 73
     1
 44
1.0
1001
ACAD
1000
ACAD_MTEXT_DEFINED_HEIGHT_BEGIN
1070
    46
1040
8.0
1000
ACAD_MTEXT_DEFINED_HEIGHT_END
  0
INSERT
  5
287
330
280
100
AcDbEntity
  8
2
  6
Continuous
 62
   134
370
     9
100
AcDbBlockReference
  2
_DOT
 10
47.07784768913552
 20
127.0702912725374
 30
0.0
 41
0.6000000000000001
 42
0.6000000000000001
 43
0.6000000000000001
 50
89.99999999999991
  0
INSERT
  5
288
330
280
100
AcDbEntity
  8
2
  6
Continuous
 62
   134
370
     9
100
AcDbBlockReference
  2
_DOT
 10
47.07784768913552
 20
66.7595095662
 30
0.0
 41
0.6000000000000001
 42
0.6000000000000001
 43
0.6000000000000001
 50
269.9999999999998
  0
ENDBLK
  5
282
330
280
100
AcDbEntity
  8
0
100
AcDbBlockEnd
  0
BLOCK
  5
28B
330
28A
100
AcDbEntity
  8
0
100
AcDbBlockBegin
  2
Dim22
 70
     0
 10
0.0
 20
0.0
 30
0.0
  3
Dim22
  1

  0
LINE
  5
28D
330
28A
100
AcDbEntity
  8
2
  6
Continuous
 62
   134
370
     9
100
AcDbLine
 10
94.53576902736968
 20
66.7595095662
 30
0.0
 11
47.07784768913552
 21
66.7595095662
 31
0.0
  0
LINE
  5
28E
330
28A
100
AcDbEntity
  8
2
  6
Continuous
 62
   134
370
     9
100
AcDbLine
 10
149.4830997847675
 20
37.76367897751516
 30
0.0
 11
47.07784768913552
 21
37.76367897751552
 31
0.0
  0
LINE
  5
28F
330
28A
100
AcDbEntity
  8
2
  6
Continuous
 62
   134
370
     9
100
AcDbLine
 10
47.07784768913552
 20
66.7595095662
 30
0.0
 11
47.07784768913552
 21
37.76367897751552
 31
0.0
  0
MTEXT
  5
290
330
28A
100
AcDbEntity
  8
2
  6
Continuous
 62
   134
370
     9
100
AcDbMText
 10
47.07784768913552
 20
52.26159427185776
 30
0.0
 40
8.0
 41
62.85714285714285
 71
     8
 72
     1
  1
29
  7
ＭＳ ゴシック
 11
1.615544574432587E-15
 21
1.0
 31
0.0
 73
     1
 44
1.0
1001
ACAD
1000
ACAD_MTEXT_DEFINED_HEIGHT_BEGIN
1070
    46
1040
8.0
1000
ACAD_MTEXT_DEFINED_HEIGHT_END
  0
INSERT
  5
291
330
28A
100
AcDbEntity
  8
2
  6
Continuous
 62
   134
370
     9
100
AcDbBlockReference
  2
_DOT
 10
47.07784768913552
 20
66.7595095662
 30
0.0
 41
0.6000000000000001
 42
0.6000000000000001
 43
0.6000000000000001
 50
89.99999999999991
  0
INSERT
  5
292
330
28A
100
AcDbEntity
  8
2
  6
Continuous
 62
   134
370
     9
100
AcDbBlockReference
  2
_DOT
 10
47.07784768913552
 20
37.76367897751552
 30
0.0
 41
0.6000000000000001
 42
0.6000000000000001
 43
0.6000000000000001
 50
269.9999999999998
  0
ENDBLK
  5
28C
330
28A
100
AcDbEntity
  8
0
100
AcDbBlockEnd
  0
BLOCK
  5
295
330
294
100
AcDbEntity
  8
0
100
AcDbBlockBegin
  2
Dim23
 70
     0
 10
0.0
 20
0.0
 30
0.0
  3
Dim23
  1

  0
LINE
  5
297
330
294
100
AcDbEntity
  8
2
  6
Continuous
 62
   134
370
     9
100
AcDbLine
 10
60.20108171970642
 20
149.5906016648776
 30
0.0
 11
47.07784768913516
 21
149.5906016648776
 31
0.0
  0
LINE
  5
298
330
294
100
AcDbEntity
  8
2
  6
Continuous
 62
   134
370
     9
100
AcDbLine
 10
61.21093341531669
 20
127.0702912725374
 30
0.0
 11
47.07784768913516
 21
127.0702912725374
 31
0.0
  0
LINE
  5
299
330
294
100
AcDbEntity
  8
2
  6
Continuous
 62
   134
370
     9
100
AcDbLine
 10
47.07784768913516
 20
149.5906016648776
 30
0.0
 11
47.07784768913516
 21
127.0702912725374
 31
0.0
  0
MTEXT
  5
29A
330
294
100
AcDbEntity
  8
2
  6
Continuous
 62
   134
370
     9
100
AcDbMText
 10
47.07784768913516
 20
137.9444321165836
 30
0.0
 40
8.0
 41
160.0
 71
     8
 72
     1
  1
22.52
  7
ＭＳ ゴシック
 11
1.615544574432587E-15
 21
1.0
 31
0.0
 73
     1
 44
1.0
1001
ACAD
1000
ACAD_MTEXT_DEFINED_HEIGHT_BEGIN
1070
    46
1040
8.0
1000
ACAD_MTEXT_DEFINED_HEIGHT_END
  0
INSERT
  5
29B
330
294
100
AcDbEntity
  8
2
  6
Continuous
 62
   134
370
     9
100
AcDbBlockReference
  2
_DOT
 10
47.07784768913516
 20
149.5906016648776
 30
0.0
 41
0.6000000000000001
 42
0.6000000000000001
 43
0.6000000000000001
 50
89.99999999999991
  0
INSERT
  5
29C
330
294
100
AcDbEntity
  8
2
  6
Continuous
 62
   134
370
     9
100
AcDbBlockReference
  2
_DOT
 10
47.07784768913516
 20
127.0702912725374
 30
0.0
 41
0.6000000000000001
 42
0.6000000000000001
 43
0.6000000000000001
 50
269.9999999999998
  0
ENDBLK
  5
296
330
294
100
AcDbEntity
  8
0
100
AcDbBlockEnd
  0
BLOCK
  5
29F
330
29E
100
AcDbEntity
  8
0
100
AcDbBlockBegin
  2
Dim24
 70
     0
 10
0.0
 20
0.0
 30
0.0
  3
Dim24
  1

  0
LINE
  5
2A1
330
29E
100
AcDbEntity
  8
2
  6
Continuous
 62
   134
370
    25
100
AcDbLine
 10
369.0091240699014
 20
103.2524678377416
 30
0.0
 11
281.2923457738754
 21
139.7321444449408
 31
0.0
  0
MTEXT
  5
2A2
330
29E
100
AcDbEntity
  8
2
  6
Continuous
 62
   134
370
     9
100
AcDbMText
 10
325.1507349218882
 20
121.4923061413414
 30
0.0
 40
8.0
 41
102.8571428571428
 71
     8
 72
     1
  1
R95
  7
ＭＳ ゴシック
 11
0.9233345083792195
 21
-0.3839965958652565
 31
0.0
 73
     1
 44
1.0
1001
ACAD
1000
ACAD_MTEXT_DEFINED_HEIGHT_BEGIN
1070
    46
1040
8.0
1000
ACAD_MTEXT_DEFINED_HEIGHT_END
  0
INSERT
  5
2A3
330
29E
100
AcDbEntity
  8
2
  6
Continuous
 62
   134
370
    25
100
AcDbBlockReference
  2
_OPEN
 10
369.0091240699014
 20
103.2524678377416
 30
0.0
 41
8.0
 42
8.0
 43
8.0
 50
337.4185381747533
  0
ENDBLK
  5
2A0
330
29E
100
AcDbEntity
  8
0
100
AcDbBlockEnd
  0
BLOCK
  5
2A6
330
2A5
100
AcDbEntity
  8
0
100
AcDbBlockBegin
  2
Dim25
 70
     0
 10
0.0
 20
0.0
 30
0.0
  3
Dim25
  1

  0
LINE
  5
2A8
330
2A5
100
AcDbEntity
  8
2
  6
Continuous
 62
   134
370
    25
100
AcDbLine
 10
368.4335512040664
 20
177.4665861726924
 30
0.0
 11
314.5147751538011
 21
146.8599596150118
 31
0.0
  0
MTEXT
  5
2A9
330
2A5
100
AcDbEntity
  8
2
  6
Continuous
 62
   134
370
     9
100
AcDbMText
 10
341.4741631789337
 20
162.1632728938523
 30
0.0
 40
8.0
 41
102.8571428571428
 71
     8
 72
     1
  1
R62
  7
ＭＳ ゴシック
 11
0.8696576782300885
 21
0.4936552670593638
 31
0.0
 73
     1
 44
1.0
1001
ACAD
1000
ACAD_MTEXT_DEFINED_HEIGHT_BEGIN
1070
    46
1040
8.0
1000
ACAD_MTEXT_DEFINED_HEIGHT_END
  0
INSERT
  5
2AA
330
2A5
100
AcDbEntity
  8
2
  6
Continuous
 62
   134
370
    25
100
AcDbBlockReference
  2
_OPEN
 10
368.4335512040664
 20
177.4665861726924
 30
0.0
 41
8.0
 42
8.0
 43
8.0
 50
29.58111615626623
  0
ENDBLK
  5
2A7
330
2A5
100
AcDbEntity
  8
0
100
AcDbBlockEnd
  0
BLOCK
  5
2AD
330
2AC
100
AcDbEntity
  8
0
100
AcDbBlockBegin
  2
Dim26
 70
     0
 10
0.0
 20
0.0
 30
0.0
  3
Dim26
  1

  0
LINE
  5
2AF
330
2AC
100
AcDbEntity
  8
2
  6
Continuous
 62
   134
370
    25
100
AcDbLine
 10
376.3416430295518
 20
136.2550846554976
 30
0.0
 11
249.5778476891341
 21
143.9971897240619
 31
0.0
  0
MTEXT
  5
2B0
330
2AC
100
AcDbEntity
  8
2
  6
Continuous
 62
   134
370
     9
100
AcDbMText
 10
352.6500769831684
 20
137.7020482232682
 30
0.0
 40
8.0
 41
140.952380952381
 71
     2
 72
     1
  1
R127
  7
ＭＳ ゴシック
 11
0.9981401207906901
 21
-0.06096145723279902
 31
0.0
 73
     1
 44
1.0
1001
ACAD
1000
ACAD_MTEXT_DEFINED_HEIGHT_BEGIN
1070
    46
1040
8.0
1000
ACAD_MTEXT_DEFINED_HEIGHT_END
  0
INSERT
  5
2B1
330
2AC
100
AcDbEntity
  8
2
  6
Continuous
 62
   134
370
    25
100
AcDbBlockReference
  2
_OPEN
 10
376.3416430295518
 20
136.2550846554976
 30
0.0
 41
8.0
 42
8.0
 43
8.0
 50
356.5049987587653
  0
ENDBLK
  5
2AE
330
2AC
100
AcDbEntity
  8
0
100
AcDbBlockEnd
  0
BLOCK
  5
2B4
330
2B3
100
AcDbEntity
  8
0
100
AcDbBlockBegin
  2
Dim27
 70
     0
 10
0.0
 20
0.0
 30
0.0
  3
Dim27
  1

  0
LINE
  5
2B6
330
2B3
100
AcDbEntity
  8
2
  6
Continuous
 62
   134
370
    25
100
AcDbLine
 10
331.2328103407344
 20
210.83797861354
 30
0.0
 11
241.8808259033096
 21
60.9497773530864
 31
0.0
  0
MTEXT
  5
2B7
330
2B3
100
AcDbEntity
  8
2
  6
Continuous
 62
   134
370
     9
100
AcDbMText
 10
305.3587307134105
 20
167.4341384075582
 30
0.0
 40
8.0
 41
198.0952380952381
 71
     8
 72
     1
  1
R174.5
  7
ＭＳ ゴシック
 11
0.5120457560883973
 21
0.8589581734123388
 31
0.0
 73
     1
 44
1.0
1001
ACAD
1000
ACAD_MTEXT_DEFINED_HEIGHT_BEGIN
1070
    46
1040
8.0
1000
ACAD_MTEXT_DEFINED_HEIGHT_END
  0
INSERT
  5
2B8
330
2B3
100
AcDbEntity
  8
2
  6
Continuous
 62
   134
370
    25
100
AcDbBlockReference
  2
_OPEN
 10
331.2328103407344
 20
210.83797861354
 30
0.0
 41
8.0
 42
8.0
 43
8.0
 50
59.19980714495986
  0
ENDBLK
  5
2B5
330
2B3
100
AcDbEntity
  8
0
100
AcDbBlockEnd
  0
BLOCK
  5
2BB
330
2BA
100
AcDbEntity
  8
0
100
AcDbBlockBegin
  2
Dim28
 70
     0
 10
0.0
 20
0.0
 30
0.0
  3
Dim28
  1

  0
LINE
  5
2BD
330
2BA
100
AcDbEntity
  8
2
  6
Continuous
 62
   134
370
    25
100
AcDbLine
 10
317.1181877183306
 20
49.88094350732717
 30
0.0
 11
246.39652323232
 21
181.5953928753756
 31
0.0
  0
MTEXT
  5
2BE
330
2BA
100
AcDbEntity
  8
2
  6
Continuous
 62
   134
370
     9
100
AcDbMText
 10
287.2940170470156
 20
105.4265001112443
 30
0.0
 40
8.0
 41
198.0952380952381
 71
     8
 72
     1
  1
R149.5
  7
ＭＳ ゴシック
 11
0.4730546119465511
 21
-0.8810331061407953
 31
0.0
 73
     1
 44
1.0
1001
ACAD
1000
ACAD_MTEXT_DEFINED_HEIGHT_BEGIN
1070
    46
1040
8.0
1000
ACAD_MTEXT_DEFINED_HEIGHT_END
  0
INSERT
  5
2BF
330
2BA
100
AcDbEntity
  8
2
  6
Continuous
 62
   134
370
    25
100
AcDbBlockReference
  2
_OPEN
 10
317.1181877183306
 20
49.88094350732717
 30
0.0
 41
8.0
 42
8.0
 43
8.0
 50
298.2327614043297
  0
ENDBLK
  5
2BC
330
2BA
100
AcDbEntity
  8
0
100
AcDbBlockEnd
  0
BLOCK
  5
2C2
330
2C1
100
AcDbEntity
  8
0
100
AcDbBlockBegin
  2
Dim29
 70
     0
 10
0.0
 20
0.0
 30
0.0
  3
Dim29
  1

  0
LINE
  5
2C4
330
2C1
100
AcDbEntity
  8
2
  6
Continuous
 62
   134
370
    25
100
AcDbLine
 10
262.3640096995579
 20
234.9097363675068
 30
0.0
 11
225.8278476891355
 21
8.087643842750913
 31
0.0
  0
MTEXT
  5
2C5
330
2C1
100
AcDbEntity
  8
2
  6
Continuous
 62
   134
370
     9
100
AcDbMText
 10
257.6968540678685
 20
205.9353190158283
 30
0.0
 40
8.0
 41
236.1904761904762
 71
     8
 72
     1
  1
R229.75
  7
ＭＳ ゴシック
 11
0.1590286091333278
 21
0.9872739748808935
 31
0.0
 73
     1
 44
1.0
1001
ACAD
1000
ACAD_MTEXT_DEFINED_HEIGHT_BEGIN
1070
    46
1040
8.0
1000
ACAD_MTEXT_DEFINED_HEIGHT_END
  0
INSERT
  5
2C6
330
2C1
100
AcDbEntity
  8
2
  6
Continuous
 62
   134
370
    25
100
AcDbBlockReference
  2
_OPEN
 10
262.3640096995579
 20
234.9097363675068
 30
0.0
 41
8.0
 42
8.0
 43
8.0
 50
80.84948226977448
  0
ENDBLK
  5
2C3
330
2C1
100
AcDbEntity
  8
0
100
AcDbBlockEnd
  0
BLOCK
  5
2C9
330
2C8
100
AcDbEntity
  8
0
100
AcDbBlockBegin
  2
Dim30
 70
     0
 10
0.0
 20
0.0
 30
0.0
  3
Dim30
  1

  0
LINE
  5
2CB
330
2C8
100
AcDbEntity
  8
2
  6
Continuous
 62
   134
370
    25
100
AcDbLine
 10
255.9998718920884
 20
31.04855644950658
 30
0.0
 11
219.2579332661844
 21
277.3228546334835
 31
0.0
  0
MTEXT
  5
2CC
330
2C8
100
AcDbEntity
  8
2
  6
Continuous
 62
   134
370
     9
100
AcDbMText
 10
251.8462758331713
 20
58.88932894560858
 30
0.0
 40
8.0
 41
139.047619047619
 71
     8
 72
     1
  1
R249
  7
ＭＳ ゴシック
 11
0.1475579864494049
 21
-0.9890534063613537
 31
0.0
 73
     1
 44
1.0
1001
ACAD
1000
ACAD_MTEXT_DEFINED_HEIGHT_BEGIN
1070
    46
1040
8.0
1000
ACAD_MTEXT_DEFINED_HEIGHT_END
  0
INSERT
  5
2CD
330
2C8
100
AcDbEntity
  8
2
  6
Continuous
 62
   134
370
    25
100
AcDbBlockReference
  2
_OPEN
 10
255.9998718920884
 20
31.04855644950658
 30
0.0
 41
8.0
 42
8.0
 43
8.0
 50
278.4854347133501
  0
ENDBLK
  5
2CA
330
2C8
100
AcDbEntity
  8
0
100
AcDbBlockEnd
  0
BLOCK
  5
2D0
330
2CF
100
AcDbEntity
  8
0
100
AcDbBlockBegin
  2
Dim31
 70
     0
 10
0.0
 20
0.0
 30
0.0
  3
Dim31
  1

  0
LINE
  5
2D2
330
2CF
100
AcDbEntity
  8
2
  6
Continuous
 62
   134
370
    25
100
AcDbLine
 10
292.5859016222188
 20
234.9205690992472
 30
0.0
 11
292.5859016222188
 21
247.833487748056
 31
0.0
  0
LINE
  5
2D3
330
2CF
100
AcDbEntity
  8
2
  6
Continuous
 62
   134
370
    25
100
AcDbLine
 10
225.8278476891414
 20
244.8334877480542
 30
0.0
 11
225.8278476891414
 21
247.833487748056
 31
0.0
  0
LINE
  5
2D4
330
2CF
100
AcDbEntity
  8
2
  6
Continuous
 62
   134
370
    25
100
AcDbLine
 10
292.5859016222188
 20
247.833487748056
 30
0.0
 11
225.8278476891414
 21
247.833487748056
 31
0.0
  0
MTEXT
  5
2D5
330
2CF
100
AcDbEntity
  8
2
  6
Continuous
 62
   134
370
     9
100
AcDbMText
 10
259.2068746556797
 20
247.833487748056
 30
0.0
 40
8.0
 41
158.0952380952381
 71
     8
 72
     1
  1
66.76
  7
ＭＳ ゴシック
 73
     1
 44
1.0
1001
ACAD
1000
ACAD_MTEXT_DEFINED_HEIGHT_BEGIN
1070
    46
1040
8.0
1000
ACAD_MTEXT_DEFINED_HEIGHT_END
  0
INSERT
  5
2D6
330
2CF
100
AcDbEntity
  8
2
  6
Continuous
 62
   134
370
    25
100
AcDbBlockReference
  2
_DOT
 10
292.5859016222188
 20
247.833487748056
 30
0.0
 41
0.6000000000000001
 42
0.6000000000000001
 43
0.6000000000000001
 50
359.9999999999997
  0
INSERT
  5
2D7
330
2CF
100
AcDbEntity
  8
2
  6
Continuous
 62
   134
370
    25
100
AcDbBlockReference
  2
_DOT
 10
225.8278476891414
 20
247.833487748056
 30
0.0
 41
0.6000000000000001
 42
0.6000000000000001
 43
0.6000000000000001
 50
179.9999999999998
  0
ENDBLK
  5
2D1
330
2CF
100
AcDbEntity
  8
0
100
AcDbBlockEnd
  0
BLOCK
  5
2DA
330
2D9
100
AcDbEntity
  8
0
100
AcDbBlockBegin
  2
Dim32
 70
     0
 10
0.0
 20
0.0
 30
0.0
  3
Dim32
  1

  0
LINE
  5
2DC
330
2D9
100
AcDbEntity
  8
2
  6
Continuous
 62
   134
370
    25
100
AcDbLine
 10
354.5441516296335
 20
201.2060156171363
 30
0.0
 11
354.5441516296335
 21
247.833487748056
 31
0.0
  0
LINE
  5
2DD
330
2D9
100
AcDbEntity
  8
2
  6
Continuous
 62
   134
370
    25
100
AcDbLine
 10
292.5859016222188
 20
234.9205690992472
 30
0.0
 11
292.5859016222188
 21
247.833487748056
 31
0.0
  0
LINE
  5
2DE
330
2D9
100
AcDbEntity
  8
2
  6
Continuous
 62
   134
370
    25
100
AcDbLine
 10
354.5441516296335
 20
247.833487748056
 30
0.0
 11
292.5859016222188
 21
247.833487748056
 31
0.0
  0
MTEXT
  5
2DF
330
2D9
100
AcDbEntity
  8
2
  6
Continuous
 62
   134
370
     9
100
AcDbMText
 10
323.5650266259261
 20
247.833487748056
 30
0.0
 40
8.0
 41
158.0952380952381
 71
     8
 72
     1
  1
61.96
  7
ＭＳ ゴシック
 73
     1
 44
1.0
1001
ACAD
1000
ACAD_MTEXT_DEFINED_HEIGHT_BEGIN
1070
    46
1040
8.0
1000
ACAD_MTEXT_DEFINED_HEIGHT_END
  0
INSERT
  5
2E0
330
2D9
100
AcDbEntity
  8
2
  6
Continuous
 62
   134
370
    25
100
AcDbBlockReference
  2
_DOT
 10
354.5441516296335
 20
247.833487748056
 30
0.0
 41
0.6000000000000001
 42
0.6000000000000001
 43
0.6000000000000001
 50
359.9999999999997
  0
INSERT
  5
2E1
330
2D9
100
AcDbEntity
  8
2
  6
Continuous
 62
   134
370
    25
100
AcDbBlockReference
  2
_DOT
 10
292.5859016222188
 20
247.833487748056
 30
0.0
 41
0.6000000000000001
 42
0.6000000000000001
 43
0.6000000000000001
 50
179.9999999999998
  0
ENDBLK
  5
2DB
330
2D9
100
AcDbEntity
  8
0
100
AcDbBlockEnd
  0
BLOCK
  5
2E4
330
2E3
100
AcDbEntity
  8
0
100
AcDbBlockBegin
  2
Dim33
 70
     0
 10
0.0
 20
0.0
 30
0.0
  3
Dim33
  1

  0
LINE
  5
2E6
330
2E3
100
AcDbEntity
  8
2
  6
Continuous
 62
   134
370
    25
100
AcDbLine
 10
376.4546136585654
 20
156.5906016648762
 30
0.0
 11
376.4546136585654
 21
247.833487748056
 31
0.0
  0
LINE
  5
2E7
330
2E3
100
AcDbEntity
  8
2
  6
Continuous
 62
   134
370
    25
100
AcDbLine
 10
354.5441516296335
 20
201.2060156171363
 30
0.0
 11
354.5441516296335
 21
247.833487748056
 31
0.0
  0
LINE
  5
2E8
330
2E3
100
AcDbEntity
  8
2
  6
Continuous
 62
   134
370
    25
100
AcDbLine
 10
376.4546136585654
 20
247.833487748056
 30
0.0
 11
354.5441516296335
 21
247.833487748056
 31
0.0
  0
MTEXT
  5
2E9
330
2E3
100
AcDbEntity
  8
2
  6
Continuous
 62
   134
370
     9
100
AcDbMText
 10
365.4993826440994
 20
247.833487748056
 30
0.0
 40
8.0
 41
148.5714285714286
 71
     8
 72
     1
  1
21.91
  7
ＭＳ ゴシック
 73
     1
 44
1.0
1001
ACAD
1000
ACAD_MTEXT_DEFINED_HEIGHT_BEGIN
1070
    46
1040
8.0
1000
ACAD_MTEXT_DEFINED_HEIGHT_END
  0
INSERT
  5
2EA
330
2E3
100
AcDbEntity
  8
2
  6
Continuous
 62
   134
370
    25
100
AcDbBlockReference
  2
_DOT
 10
376.4546136585654
 20
247.833487748056
 30
0.0
 41
0.6000000000000001
 42
0.6000000000000001
 43
0.6000000000000001
 50
359.9999999999997
  0
INSERT
  5
2EB
330
2E3
100
AcDbEntity
  8
2
  6
Continuous
 62
   134
370
    25
100
AcDbBlockReference
  2
_DOT
 10
354.5441516296335
 20
247.833487748056
 30
0.0
 41
0.6000000000000001
 42
0.6000000000000001
 43
0.6000000000000001
 50
179.9999999999998
  0
ENDBLK
  5
2E5
330
2E3
100
AcDbEntity
  8
0
100
AcDbBlockEnd
  0
BLOCK
  5
2EE
330
2ED
100
AcDbEntity
  8
0
100
AcDbBlockBegin
  2
Dim34
 70
     0
 10
0.0
 20
0.0
 30
0.0
  3
Dim34
  1

  0
LINE
  5
2F0
330
2ED
100
AcDbEntity
  8
2
  6
Continuous
 62
   134
370
    25
100
AcDbLine
 10
376.4546136585654
 20
151.5906016648776
 30
0.0
 11
376.4546136585654
 21
247.833487748056
 31
0.0
  0
LINE
  5
2F1
330
2ED
100
AcDbEntity
  8
2
  6
Continuous
 62
   134
370
    25
100
AcDbLine
 10
376.5778476891341
 20
145.9971897240619
 30
0.0
 11
376.5778476891341
 21
247.833487748056
 31
0.0
  0
LINE
  5
2F2
330
2ED
100
AcDbEntity
  8
2
  6
Continuous
 62
   134
370
    25
100
AcDbLine
 10
376.4546136585654
 20
247.833487748056
 30
0.0
 11
394.9965773891306
 21
247.833487748056
 31
0.0
  0
MTEXT
  5
2F3
330
2ED
100
AcDbEntity
  8
2
  6
Continuous
 62
   134
370
     9
100
AcDbMText
 10
378.9965773891305
 20
247.833487748056
 30
0.0
 40
8.0
 41
121.9047619047619
 71
     7
 72
     1
  1
0.12
  7
ＭＳ ゴシック
 73
     1
 44
1.0
1001
ACAD
1000
ACAD_MTEXT_DEFINED_HEIGHT_BEGIN
1070
    46
1040
8.0
1000
ACAD_MTEXT_DEFINED_HEIGHT_END
  0
INSERT
  5
2F4
330
2ED
100
AcDbEntity
  8
2
  6
Continuous
 62
   134
370
    25
100
AcDbBlockReference
  2
_DOT
 10
376.4546136585654
 20
247.833487748056
 30
0.0
 41
0.6000000000000001
 42
0.6000000000000001
 43
0.6000000000000001
 50
359.9999999999996
  0
INSERT
  5
2F5
330
2ED
100
AcDbEntity
  8
2
  6
Continuous
 62
   134
370
    25
100
AcDbBlockReference
  2
_DOT
 10
376.5778476891341
 20
247.833487748056
 30
0.0
 41
0.6000000000000001
 42
0.6000000000000001
 43
0.6000000000000001
 50
179.9999999999998
  0
ENDBLK
  5
2EF
330
2ED
100
AcDbEntity
  8
0
100
AcDbBlockEnd
  0
BLOCK
  5
2F8
330
2F7
100
AcDbEntity
  8
0
100
AcDbBlockBegin
  2
Dim35
 70
     0
 10
0.0
 20
0.0
 30
0.0
  3
Dim35
  1

  0
LINE
  5
2FA
330
2F7
100
AcDbEntity
  8
2
  6
Continuous
 62
   134
370
    25
100
AcDbLine
 10
56.07784768913516
 20
276.633487748056
 30
0.0
 11
62.96277091787451
 21
276.633487748056
 31
0.0
  0
LINE
  5
2FB
330
2F7
100
AcDbEntity
  8
2
  6
Continuous
 62
   134
370
    25
100
AcDbLine
 10
59.07784768913516
 20
272.633487748056
 30
0.0
 11
62.96277091787451
 21
272.633487748056
 31
0.0
  0
LINE
  5
2FC
330
2F7
100
AcDbEntity
  8
2
  6
Continuous
 62
   134
370
    25
100
AcDbLine
 10
62.46277091787451
 20
276.633487748056
 30
0.0
 11
62.46277091787451
 21
272.633487748056
 31
0.0
  0
MTEXT
  5
2FD
330
2F7
100
AcDbEntity
  8
2
  6
Continuous
 62
   134
370
     9
100
AcDbMText
 10
62.46277091787451
 20
274.633487748056
 30
0.0
 40
8.0
 41
28.57142857142857
 71
     8
 72
     1
  1
4
  7
ＭＳ ゴシック
 11
1.393499969507555E-15
 21
1.0
 31
0.0
 73
     1
 44
1.0
1001
ACAD
1000
ACAD_MTEXT_DEFINED_HEIGHT_BEGIN
1070
    46
1040
8.0
1000
ACAD_MTEXT_DEFINED_HEIGHT_END
  0
INSERT
  5
2FE
330
2F7
100
AcDbEntity
  8
2
  6
Continuous
 62
   134
370
    25
100
AcDbBlockReference
  2
_DOT
 10
62.46277091787451
 20
276.633487748056
 30
0.0
 41
0.6000000000000001
 42
0.6000000000000001
 43
0.6000000000000001
 50
89.99999999999959
  0
INSERT
  5
2FF
330
2F7
100
AcDbEntity
  8
2
  6
Continuous
 62
   134
370
    25
100
AcDbBlockReference
  2
_DOT
 10
62.46277091787451
 20
272.633487748056
 30
0.0
 41
0.6000000000000001
 42
0.6000000000000001
 43
0.6000000000000001
 50
269.9999999999998
  0
ENDBLK
  5
2F9
330
2F7
100
AcDbEntity
  8
0
100
AcDbBlockEnd
  0
BLOCK
  5
302
330
301
100
AcDbEntity
  8
0
100
AcDbBlockBegin
  2
Dim36
 70
     0
 10
0.0
 20
0.0
 30
0.0
  3
Dim36
  1

  0
LINE
  5
304
330
301
100
AcDbEntity
  8
2
  6
Continuous
 62
   134
370
    25
100
AcDbLine
 10
57.07784768913516
 20
278.633487748056
 30
0.0
 11
57.07784768913516
 21
283.2611451460307
 31
0.0
  0
LINE
  5
305
330
301
100
AcDbEntity
  8
2
  6
Continuous
 62
   134
370
    25
100
AcDbLine
 10
54.07784768913516
 20
278.633487748056
 30
0.0
 11
54.07784768913516
 21
283.2611451460307
 31
0.0
  0
LINE
  5
306
330
301
100
AcDbEntity
  8
2
  6
Continuous
 62
   134
370
    25
100
AcDbLine
 10
57.07784768913516
 20
282.7611451460307
 30
0.0
 11
54.07784768913516
 21
282.7611451460307
 31
0.0
  0
MTEXT
  5
307
330
301
100
AcDbEntity
  8
2
  6
Continuous
 62
   134
370
     9
100
AcDbMText
 10
55.57784768913516
 20
282.7611451460307
 30
0.0
 40
8.0
 41
26.66666666666667
 71
     8
 72
     1
  1
3
  7
ＭＳ ゴシック
 73
     1
 44
1.0
1001
ACAD
1000
ACAD_MTEXT_DEFINED_HEIGHT_BEGIN
1070
    46
1040
8.0
1000
ACAD_MTEXT_DEFINED_HEIGHT_END
  0
INSERT
  5
308
330
301
100
AcDbEntity
  8
2
  6
Continuous
 62
   134
370
    25
100
AcDbBlockReference
  2
_DOT
 10
57.07784768913516
 20
282.7611451460307
 30
0.0
 41
0.6000000000000001
 42
0.6000000000000001
 43
0.6000000000000001
 50
359.9999999999997
  0
INSERT
  5
309
330
301
100
AcDbEntity
  8
2
  6
Continuous
 62
   134
370
    25
100
AcDbBlockReference
  2
_DOT
 10
54.07784768913516
 20
282.7611451460307
 30
0.0
 41
0.6000000000000001
 42
0.6000000000000001
 43
0.6000000000000001
 50
179.9999999999998
  0
ENDBLK
  5
303
330
301
100
AcDbEntity
  8
0
100
AcDbBlockEnd
  0
BLOCK
  5
30C
330
30B
100
AcDbEntity
  8
0
100
AcDbBlockBegin
  2
Dim37
 70
     0
 10
0.0
 20
0.0
 30
0.0
  3
Dim37
  1

  0
LINE
  5
30E
330
30B
100
AcDbEntity
  8
2
  6
Continuous
 62
   134
370
     9
100
AcDbLine
 10
376.5778476891312
 20
172.1578492185439
 30
0.0
 11
376.5778476891315
 21
285.1392256760024
 31
0.0
  0
LINE
  5
30F
330
30B
100
AcDbEntity
  8
2
  6
Continuous
 62
   134
370
     9
100
AcDbLine
 10
67.0778476891348
 20
180.604485025823
 30
0.0
 11
67.0778476891348
 21
285.1392256760024
 31
0.0
  0
LINE
  5
310
330
30B
100
AcDbEntity
  8
2
  6
Continuous
 62
   134
370
     9
100
AcDbLine
 10
376.5778476891315
 20
284.6392256760024
 30
0.0
 11
67.0778476891348
 21
284.6392256760024
 31
0.0
  0
MTEXT
  5
311
330
30B
100
AcDbEntity
  8
2
  6
Continuous
 62
   134
370
     9
100
AcDbMText
 10
221.8278476891334
 20
284.6392256760024
 30
0.0
 40
8.0
 41
160.0
 71
     8
 72
     1
  1
309.5
  7
ＭＳ ゴシック
 73
     1
 44
1.0
1001
ACAD
1000
ACAD_MTEXT_DEFINED_HEIGHT_BEGIN
1070
    46
1040
8.0
1000
ACAD_MTEXT_DEFINED_HEIGHT_END
  0
INSERT
  5
312
330
30B
100
AcDbEntity
  8
2
  6
Continuous
 62
   134
370
     9
100
AcDbBlockReference
  2
_DOT
 10
376.5778476891315
 20
284.6392256760024
 30
0.0
 41
0.6000000000000001
 42
0.6000000000000001
 43
0.6000000000000001
 50
359.9999999999997
  0
INSERT
  5
313
330
30B
100
AcDbEntity
  8
2
  6
Continuous
 62
   134
370
     9
100
AcDbBlockReference
  2
_DOT
 10
67.0778476891348
 20
284.6392256760024
 30
0.0
 41
0.6000000000000001
 42
0.6000000000000001
 43
0.6000000000000001
 50
179.9999999999998
  0
ENDBLK
  5
30D
330
30B
100
AcDbEntity
  8
0
100
AcDbBlockEnd
  0
BLOCK
  5
316
330
315
100
AcDbEntity
  8
0
100
AcDbBlockBegin
  2
Dim38
 70
     0
 10
0.0
 20
0.0
 30
0.0
  3
Dim38
  1

  0
LINE
  5
318
330
315
100
AcDbEntity
  8
2
  6
Continuous
 62
   134
370
    25
100
AcDbLine
 10
221.8278476891035
 20
26.33611695482941
 30
0.0
 11
221.8278476891035
 21
18.33611695482941
 31
0.0
  0
LINE
  5
319
330
315
100
AcDbEntity
  8
2
  6
Continuous
 62
   134
370
    25
100
AcDbLine
 10
287.1725955935035
 20
30.76367897751334
 30
0.0
 11
287.1725955935035
 21
18.33611695482941
 31
0.0
  0
LINE
  5
31A
330
315
100
AcDbEntity
  8
2
  6
Continuous
 62
   134
370
    25
100
AcDbLine
 10
221.8278476891035
 20
18.33611695482941
 30
0.0
 11
287.1725955935035
 21
18.33611695482941
 31
0.0
  0
MTEXT
  5
31B
330
315
100
AcDbEntity
  8
2
  6
Continuous
 62
   134
370
     9
100
AcDbMText
 10
254.5002216413035
 20
18.33611695482941
 30
0.0
 40
8.0
 41
160.0
 71
     8
 72
     1
  1
65.34
  7
ＭＳ ゴシック
 73
     1
 44
1.0
1001
ACAD
1000
ACAD_MTEXT_DEFINED_HEIGHT_BEGIN
1070
    46
1040
8.0
1000
ACAD_MTEXT_DEFINED_HEIGHT_END
  0
INSERT
  5
31C
330
315
100
AcDbEntity
  8
2
  6
Continuous
 62
   134
370
    25
100
AcDbBlockReference
  2
_DOT
 10
221.8278476891035
 20
18.33611695482941
 30
0.0
 41
0.6000000000000001
 42
0.6000000000000001
 43
0.6000000000000001
 50
179.9999999999998
  0
INSERT
  5
31D
330
315
100
AcDbEntity
  8
2
  6
Continuous
 62
   134
370
    25
100
AcDbBlockReference
  2
_DOT
 10
287.1725955935035
 20
18.33611695482941
 30
0.0
 41
0.6000000000000001
 42
0.6000000000000001
 43
0.6000000000000001
 50
359.9999999999997
  0
ENDBLK
  5
317
330
315
100
AcDbEntity
  8
0
100
AcDbBlockEnd
  0
BLOCK
  5
320
330
31F
100
AcDbEntity
  8
0
100
AcDbBlockBegin
  2
Dim39
 70
     0
 10
0.0
 20
0.0
 30
0.0
  3
Dim39
  1

  0
LINE
  5
322
330
31F
100
AcDbEntity
  8
2
  6
Continuous
 62
   134
370
    25
100
AcDbLine
 10
221.8278476891661
 20
26.33611695482941
 30
0.0
 11
221.8278476891661
 21
18.33611695482941
 31
0.0
  0
LINE
  5
323
330
31F
100
AcDbEntity
  8
2
  6
Continuous
 62
   134
370
    25
100
AcDbLine
 10
156.4830997847661
 20
30.76367897751334
 30
0.0
 11
156.4830997847661
 21
18.33611695482941
 31
0.0
  0
LINE
  5
324
330
31F
100
AcDbEntity
  8
2
  6
Continuous
 62
   134
370
    25
100
AcDbLine
 10
221.8278476891661
 20
18.33611695482941
 30
0.0
 11
156.4830997847661
 21
18.33611695482941
 31
0.0
  0
MTEXT
  5
325
330
31F
100
AcDbEntity
  8
2
  6
Continuous
 62
   134
370
     9
100
AcDbMText
 10
189.1554737369661
 20
18.33611695482941
 30
0.0
 40
8.0
 41
160.0
 71
     8
 72
     1
  1
65.34
  7
ＭＳ ゴシック
 73
     1
 44
1.0
1001
ACAD
1000
ACAD_MTEXT_DEFINED_HEIGHT_BEGIN
1070
    46
1040
8.0
1000
ACAD_MTEXT_DEFINED_HEIGHT_END
  0
INSERT
  5
326
330
31F
100
AcDbEntity
  8
2
  6
Continuous
 62
   134
370
    25
100
AcDbBlockReference
  2
_DOT
 10
221.8278476891661
 20
18.33611695482941
 30
0.0
 41
0.6000000000000001
 42
0.6000000000000001
 43
0.6000000000000001
 50
359.9999999999997
  0
INSERT
  5
327
330
31F
100
AcDbEntity
  8
2
  6
Continuous
 62
   134
370
    25
100
AcDbBlockReference
  2
_DOT
 10
156.4830997847661
 20
18.33611695482941
 30
0.0
 41
0.6000000000000001
 42
0.6000000000000001
 43
0.6000000000000001
 50
179.9999999999998
  0
ENDBLK
  5
321
330
31F
100
AcDbEntity
  8
0
100
AcDbBlockEnd
  0
BLOCK
  5
32A
330
329
100
AcDbEntity
  8
0
100
AcDbBlockBegin
  2
Dim40
 70
     0
 10
0.0
 20
0.0
 30
0.0
  3
Dim40
  1

  0
LINE
  5
32C
330
329
100
AcDbEntity
  8
2
  6
Continuous
 62
   134
370
    25
100
AcDbLine
 10
287.1725955935035
 20
30.76367897751334
 30
0.0
 11
287.1725955935035
 21
18.33611695482941
 31
0.0
  0
LINE
  5
32D
330
329
100
AcDbEntity
  8
2
  6
Continuous
 62
   134
370
    25
100
AcDbLine
 10
342.1199263509014
 20
59.75950956619818
 30
0.0
 11
342.119926350901
 21
18.33611695482941
 31
0.0
  0
LINE
  5
32E
330
329
100
AcDbEntity
  8
2
  6
Continuous
 62
   134
370
    25
100
AcDbLine
 10
287.1725955935035
 20
18.33611695482941
 30
0.0
 11
342.119926350901
 21
18.33611695482941
 31
0.0
  0
MTEXT
  5
32F
330
329
100
AcDbEntity
  8
2
  6
Continuous
 62
   134
370
     9
100
AcDbMText
 10
314.6462609722025
 20
18.33611695482941
 30
0.0
 40
8.0
 41
160.0
 71
     8
 72
     1
  1
54.95
  7
ＭＳ ゴシック
 73
     1
 44
1.0
1001
ACAD
1000
ACAD_MTEXT_DEFINED_HEIGHT_BEGIN
1070
    46
1040
8.0
1000
ACAD_MTEXT_DEFINED_HEIGHT_END
  0
INSERT
  5
330
330
329
100
AcDbEntity
  8
2
  6
Continuous
 62
   134
370
    25
100
AcDbBlockReference
  2
_DOT
 10
287.1725955935035
 20
18.33611695482941
 30
0.0
 41
0.6000000000000001
 42
0.6000000000000001
 43
0.6000000000000001
 50
179.9999999999998
  0
INSERT
  5
331
330
329
100
AcDbEntity
  8
2
  6
Continuous
 62
   134
370
    25
100
AcDbBlockReference
  2
_DOT
 10
342.119926350901
 20
18.33611695482941
 30
0.0
 41
0.6000000000000001
 42
0.6000000000000001
 43
0.6000000000000001
 50
359.9999999999997
  0
ENDBLK
  5
32B
330
329
100
AcDbEntity
  8
0
100
AcDbBlockEnd
  0
BLOCK
  5
334
330
333
100
AcDbEntity
  8
0
100
AcDbBlockBegin
  2
Dim41
 70
     0
 10
0.0
 20
0.0
 30
0.0
  3
Dim41
  1

  0
LINE
  5
336
330
333
100
AcDbEntity
  8
2
  6
Continuous
 62
   134
370
    25
100
AcDbLine
 10
342.1199263509014
 20
59.75950956619818
 30
0.0
 11
342.119926350901
 21
18.33611695482941
 31
0.0
  0
LINE
  5
337
330
333
100
AcDbEntity
  8
2
  6
Continuous
 62
   134
370
    25
100
AcDbLine
 10
375.4447619629544
 20
120.0702912725355
 30
0.0
 11
375.444761962954
 21
18.33611695482941
 31
0.0
  0
LINE
  5
338
330
333
100
AcDbEntity
  8
2
  6
Continuous
 62
   134
370
    25
100
AcDbLine
 10
342.119926350901
 20
18.33611695482941
 30
0.0
 11
375.444761962954
 21
18.33611695482941
 31
0.0
  0
MTEXT
  5
339
330
333
100
AcDbEntity
  8
2
  6
Continuous
 62
   134
370
     9
100
AcDbMText
 10
358.7823441569275
 20
18.33611695482941
 30
0.0
 40
8.0
 41
160.0
 71
     8
 72
     1
  1
33.32
  7
ＭＳ ゴシック
 73
     1
 44
1.0
1001
ACAD
1000
ACAD_MTEXT_DEFINED_HEIGHT_BEGIN
1070
    46
1040
8.0
1000
ACAD_MTEXT_DEFINED_HEIGHT_END
  0
INSERT
  5
33A
330
333
100
AcDbEntity
  8
2
  6
Continuous
 62
   134
370
    25
100
AcDbBlockReference
  2
_DOT
 10
342.119926350901
 20
18.33611695482941
 30
0.0
 41
0.6000000000000001
 42
0.6000000000000001
 43
0.6000000000000001
 50
179.9999999999998
  0
INSERT
  5
33B
330
333
100
AcDbEntity
  8
2
  6
Continuous
 62
   134
370
    25
100
AcDbBlockReference
  2
_DOT
 10
375.444761962954
 20
18.33611695482941
 30
0.0
 41
0.6000000000000001
 42
0.6000000000000001
 43
0.6000000000000001
 50
359.9999999999997
  0
ENDBLK
  5
335
330
333
100
AcDbEntity
  8
0
100
AcDbBlockEnd
  0
BLOCK
  5
33E
330
33D
100
AcDbEntity
  8
0
100
AcDbBlockBegin
  2
Dim42
 70
     0
 10
0.0
 20
0.0
 30
0.0
  3
Dim42
  1

  0
LINE
  5
340
330
33D
100
AcDbEntity
  8
2
  6
Continuous
 62
   134
370
    25
100
AcDbLine
 10
375.4447619629544
 20
120.0702912725355
 30
0.0
 11
375.444761962954
 21
18.33611695482941
 31
0.0
  0
LINE
  5
341
330
33D
100
AcDbEntity
  8
2
  6
Continuous
 62
   134
370
    25
100
AcDbLine
 10
376.454613658569
 20
147.5906016646513
 30
0.0
 11
376.4546136585683
 21
18.33611695482941
 31
0.0
  0
LINE
  5
342
330
33D
100
AcDbEntity
  8
2
  6
Continuous
 62
   134
370
    25
100
AcDbLine
 10
375.444761962954
 20
18.33611695482941
 30
0.0
 11
393.1332308825288
 21
18.33611695482941
 31
0.0
  0
MTEXT
  5
343
330
33D
100
AcDbEntity
  8
2
  6
Continuous
 62
   134
370
     9
100
AcDbMText
 10
377.1332308825288
 20
18.33611695482941
 30
0.0
 40
8.0
 41
104.7619047619047
 71
     7
 72
     1
  1
1.01
  7
ＭＳ ゴシック
 73
     1
 44
1.0
1001
ACAD
1000
ACAD_MTEXT_DEFINED_HEIGHT_BEGIN
1070
    46
1040
8.0
1000
ACAD_MTEXT_DEFINED_HEIGHT_END
  0
INSERT
  5
344
330
33D
100
AcDbEntity
  8
2
  6
Continuous
 62
   134
370
    25
100
AcDbBlockReference
  2
_DOT
 10
375.444761962954
 20
18.33611695482941
 30
0.0
 41
0.6000000000000001
 42
0.6000000000000001
 43
0.6000000000000001
 50
359.9999999999997
  0
INSERT
  5
345
330
33D
100
AcDbEntity
  8
2
  6
Continuous
 62
   134
370
    25
100
AcDbBlockReference
  2
_DOT
 10
376.4546136585683
 20
18.33611695482941
 30
0.0
 41
0.6000000000000001
 42
0.6000000000000001
 43
0.6000000000000001
 50
179.9999999999995
  0
ENDBLK
  5
33F
330
33D
100
AcDbEntity
  8
0
100
AcDbBlockEnd
  0
BLOCK
  5
348
330
347
100
AcDbEntity
  8
0
100
AcDbBlockBegin
  2
Dim43
 70
     0
 10
0.0
 20
0.0
 30
0.0
  3
Dim43
  1

  0
LINE
  5
34A
330
347
100
AcDbEntity
  8
2
  6
Continuous
 62
   134
370
    25
100
AcDbLine
 10
156.4830997847661
 20
30.76367897751334
 30
0.0
 11
156.4830997847661
 21
18.33611695482941
 31
0.0
  0
LINE
  5
34B
330
347
100
AcDbEntity
  8
2
  6
Continuous
 62
   134
370
    25
100
AcDbLine
 10
101.5357690273682
 20
59.75950956619818
 30
0.0
 11
101.5357690273679
 21
18.33611695482941
 31
0.0
  0
LINE
  5
34C
330
347
100
AcDbEntity
  8
2
  6
Continuous
 62
   134
370
    25
100
AcDbLine
 10
156.4830997847661
 20
18.33611695482941
 30
0.0
 11
101.5357690273679
 21
18.33611695482941
 31
0.0
  0
MTEXT
  5
34D
330
347
100
AcDbEntity
  8
2
  6
Continuous
 62
   134
370
     9
100
AcDbMText
 10
129.0094344060672
 20
18.33611695482941
 30
0.0
 40
8.0
 41
160.0
 71
     8
 72
     1
  1
54.95
  7
ＭＳ ゴシック
 73
     1
 44
1.0
1001
ACAD
1000
ACAD_MTEXT_DEFINED_HEIGHT_BEGIN
1070
    46
1040
8.0
1000
ACAD_MTEXT_DEFINED_HEIGHT_END
  0
INSERT
  5
34E
330
347
100
AcDbEntity
  8
2
  6
Continuous
 62
   134
370
    25
100
AcDbBlockReference
  2
_DOT
 10
156.4830997847661
 20
18.33611695482941
 30
0.0
 41
0.6000000000000001
 42
0.6000000000000001
 43
0.6000000000000001
 50
359.9999999999997
  0
INSERT
  5
34F
330
347
100
AcDbEntity
  8
2
  6
Continuous
 62
   134
370
    25
100
AcDbBlockReference
  2
_DOT
 10
101.5357690273679
 20
18.33611695482941
 30
0.0
 41
0.6000000000000001
 42
0.6000000000000001
 43
0.6000000000000001
 50
179.9999999999998
  0
ENDBLK
  5
349
330
347
100
AcDbEntity
  8
0
100
AcDbBlockEnd
  0
BLOCK
  5
352
330
351
100
AcDbEntity
  8
0
100
AcDbBlockBegin
  2
Dim44
 70
     0
 10
0.0
 20
0.0
 30
0.0
  3
Dim44
  1

  0
LINE
  5
354
330
351
100
AcDbEntity
  8
2
  6
Continuous
 62
   134
370
    25
100
AcDbLine
 10
101.5357690273682
 20
59.75950956619818
 30
0.0
 11
101.5357690273679
 21
18.33611695482941
 31
0.0
  0
LINE
  5
355
330
351
100
AcDbEntity
  8
2
  6
Continuous
 62
   134
370
    25
100
AcDbLine
 10
68.21093341531522
 20
120.0702912725355
 30
0.0
 11
68.2109334153145
 21
18.33611695482941
 31
0.0
  0
LINE
  5
356
330
351
100
AcDbEntity
  8
2
  6
Continuous
 62
   134
370
    25
100
AcDbLine
 10
101.5357690273679
 20
18.33611695482941
 30
0.0
 11
68.2109334153145
 21
18.33611695482941
 31
0.0
  0
MTEXT
  5
357
330
351
100
AcDbEntity
  8
2
  6
Continuous
 62
   134
370
     9
100
AcDbMText
 10
84.87335122134101
 20
18.33611695482941
 30
0.0
 40
8.0
 41
160.0
 71
     8
 72
     1
  1
33.32
  7
ＭＳ ゴシック
 73
     1
 44
1.0
1001
ACAD
1000
ACAD_MTEXT_DEFINED_HEIGHT_BEGIN
1070
    46
1040
8.0
1000
ACAD_MTEXT_DEFINED_HEIGHT_END
  0
INSERT
  5
358
330
351
100
AcDbEntity
  8
2
  6
Continuous
 62
   134
370
    25
100
AcDbBlockReference
  2
_DOT
 10
101.5357690273679
 20
18.33611695482941
 30
0.0
 41
0.6000000000000001
 42
0.6000000000000001
 43
0.6000000000000001
 50
359.9999999999997
  0
INSERT
  5
359
330
351
100
AcDbEntity
  8
2
  6
Continuous
 62
   134
370
    25
100
AcDbBlockReference
  2
_DOT
 10
68.2109334153145
 20
18.33611695482941
 30
0.0
 41
0.6000000000000001
 42
0.6000000000000001
 43
0.6000000000000001
 50
179.9999999999998
  0
ENDBLK
  5
353
330
351
100
AcDbEntity
  8
0
100
AcDbBlockEnd
  0
BLOCK
  5
35C
330
35B
100
AcDbEntity
  8
0
100
AcDbBlockBegin
  2
Dim45
 70
     0
 10
0.0
 20
0.0
 30
0.0
  3
Dim45
  1

  0
LINE
  5
35E
330
35B
100
AcDbEntity
  8
2
  6
Continuous
 62
   134
370
    25
100
AcDbLine
 10
68.21093341531522
 20
120.0702912725355
 30
0.0
 11
68.2109334153145
 21
18.33611695482941
 31
0.0
  0
LINE
  5
35F
330
35B
100
AcDbEntity
  8
2
  6
Continuous
 62
   134
370
    25
100
AcDbLine
 10
67.20108171970058
 20
147.5906016646513
 30
0.0
 11
67.20108171969987
 21
18.33611695482941
 31
0.0
  0
LINE
  5
360
330
35B
100
AcDbEntity
  8
2
  6
Continuous
 62
   134
370
    25
100
AcDbLine
 10
68.2109334153145
 20
18.33611695482941
 30
0.0
 11
50.4788530202357
 21
18.33611695482942
 31
0.0
  0
MTEXT
  5
361
330
35B
100
AcDbEntity
  8
2
  6
Continuous
 62
   134
370
     9
100
AcDbMText
 10
66.47885302023569
 20
18.33611695482941
 30
0.0
 40
8.0
 41
104.7619047619047
 71
     9
 72
     1
  1
1.01
  7
ＭＳ ゴシック
 73
     1
 44
1.0
1001
ACAD
1000
ACAD_MTEXT_DEFINED_HEIGHT_BEGIN
1070
    46
1040
8.0
1000
ACAD_MTEXT_DEFINED_HEIGHT_END
  0
INSERT
  5
362
330
35B
100
AcDbEntity
  8
2
  6
Continuous
 62
   134
370
    25
100
AcDbBlockReference
  2
_DOT
 10
68.2109334153145
 20
18.33611695482941
 30
0.0
 41
0.6000000000000001
 42
0.6000000000000001
 43
0.6000000000000001
 50
179.9999999999995
  0
INSERT
  5
363
330
35B
100
AcDbEntity
  8
2
  6
Continuous
 62
   134
370
    25
100
AcDbBlockReference
  2
_DOT
 10
67.20108171969987
 20
18.33611695482941
 30
0.0
 41
0.6000000000000001
 42
0.6000000000000001
 43
0.6000000000000001
 50
359.9999999999997
  0
ENDBLK
  5
35D
330
35B
100
AcDbEntity
  8
0
100
AcDbBlockEnd
  0
BLOCK
  5
366
330
365
100
AcDbEntity
  8
0
100
AcDbBlockBegin
  2
Dim46
 70
     0
 10
0.0
 20
0.0
 30
0.0
  3
Dim46
  1

  0
LINE
  5
368
330
365
100
AcDbEntity
  8
2
  6
Continuous
 62
   134
370
     9
100
AcDbLine
 10
149.0697937560508
 20
237.833487748056
 30
0.0
 11
47.07784768913552
 21
237.8334877480564
 31
0.0
  0
LINE
  5
369
330
365
100
AcDbEntity
  8
2
  6
Continuous
 62
   134
370
     9
100
AcDbLine
 10
144.069793756053
 20
227.9205690992491
 30
0.0
 11
47.07784768913552
 21
227.9205690992494
 31
0.0
  0
LINE
  5
36A
330
365
100
AcDbEntity
  8
2
  6
Continuous
 62
   134
370
     9
100
AcDbLine
 10
47.07784768913552
 20
254.6886699640709
 30
0.0
 11
47.07784768913552
 21
227.9205690992494
 31
0.0
  0
MTEXT
  5
36B
330
365
100
AcDbEntity
  8
2
  6
Continuous
 62
   134
370
     9
100
AcDbMText
 10
47.07784768913552
 20
238.6886699640709
 30
0.0
 40
8.0
 41
110.4761904761905
 71
     7
 72
     1
  1
9.91
  7
ＭＳ ゴシック
 11
1.615544574432587E-15
 21
1.0
 31
0.0
 73
     1
 44
1.0
1001
ACAD
1000
ACAD_MTEXT_DEFINED_HEIGHT_BEGIN
1070
    46
1040
8.0
1000
ACAD_MTEXT_DEFINED_HEIGHT_END
  0
INSERT
  5
36C
330
365
100
AcDbEntity
  8
2
  6
Continuous
 62
   134
370
     9
100
AcDbBlockReference
  2
_DOT
 10
47.07784768913552
 20
237.8334877480564
 30
0.0
 41
0.6000000000000001
 42
0.6000000000000001
 43
0.6000000000000001
 50
89.99999999999991
  0
INSERT
  5
36D
330
365
100
AcDbEntity
  8
2
  6
Continuous
 62
   134
370
     9
100
AcDbBlockReference
  2
_DOT
 10
47.07784768913552
 20
227.9205690992494
 30
0.0
 41
0.6000000000000001
 42
0.6000000000000001
 43
0.6000000000000001
 50
269.9999999999998
  0
ENDBLK
  5
367
330
365
100
AcDbEntity
  8
0
100
AcDbBlockEnd
  0
BLOCK
  5
370
330
36F
100
AcDbEntity
  8
0
100
AcDbBlockBegin
  2
Dim47
 70
     0
 10
0.0
 20
0.0
 30
0.0
  3
Dim47
  1

  0
LINE
  5
372
330
36F
100
AcDbEntity
  8
2
  6
Continuous
 62
   134
370
     9
100
AcDbLine
 10
149.4830997847675
 20
37.76367897751516
 30
0.0
 11
47.07784768913552
 21
37.76367897751552
 31
0.0
  0
LINE
  5
373
330
36F
100
AcDbEntity
  8
2
  6
Continuous
 62
   134
370
     9
100
AcDbLine
 10
219.8278476891661
 20
28.33611695482942
 30
0.0
 11
47.07784768913552
 21
28.33611695482978
 31
0.0
  0
LINE
  5
374
330
36F
100
AcDbEntity
  8
2
  6
Continuous
 62
   134
370
     9
100
AcDbLine
 10
47.07784768913552
 20
37.76367897751552
 30
0.0
 11
47.07784768913552
 21
10.33611695482941
 31
0.0
  0
MTEXT
  5
375
330
36F
100
AcDbEntity
  8
2
  6
Continuous
 62
   134
370
     9
100
AcDbMText
 10
47.07784768913552
 20
26.33611695482941
 30
0.0
 40
8.0
 41
121.9047619047619
 71
     9
 72
     1
  1
9.43
  7
ＭＳ ゴシック
 11
1.615544574432587E-15
 21
1.0
 31
0.0
 73
     1
 44
1.0
1001
ACAD
1000
ACAD_MTEXT_DEFINED_HEIGHT_BEGIN
1070
    46
1040
8.0
1000
ACAD_MTEXT_DEFINED_HEIGHT_END
  0
INSERT
  5
376
330
36F
100
AcDbEntity
  8
2
  6
Continuous
 62
   134
370
     9
100
AcDbBlockReference
  2
_DOT
 10
47.07784768913552
 20
37.76367897751552
 30
0.0
 41
0.6000000000000001
 42
0.6000000000000001
 43
0.6000000000000001
 50
89.99999999999991
  0
INSERT
  5
377
330
36F
100
AcDbEntity
  8
2
  6
Continuous
 62
   134
370
     9
100
AcDbBlockReference
  2
_DOT
 10
47.07784768913552
 20
28.33611695482978
 30
0.0
 41
0.6000000000000001
 42
0.6000000000000001
 43
0.6000000000000001
 50
269.9999999999998
  0
ENDBLK
  5
371
330
36F
100
AcDbEntity
  8
0
100
AcDbBlockEnd
  0
BLOCK
  5
37A
330
379
100
AcDbEntity
  8
0
100
AcDbBlockBegin
  2
Dim48
 70
     0
 10
0.0
 20
0.0
 30
0.0
  3
Dim48
  1

  0
LINE
  5
37C
330
379
100
AcDbEntity
  8
2
  6
Continuous
 62
   134
370
    25
100
AcDbLine
 10
221.8278476891348
 20
239.833487748056
 30
0.0
 11
221.8278476891348
 21
247.833487748056
 31
0.0
  0
LINE
  5
37D
330
379
100
AcDbEntity
  8
2
  6
Continuous
 62
   134
370
    25
100
AcDbLine
 10
225.8278476891414
 20
244.1131851759117
 30
0.0
 11
225.8278476891414
 21
247.833487748056
 31
0.0
  0
LINE
  5
37E
330
379
100
AcDbEntity
  8
2
  6
Continuous
 62
   134
370
    25
100
AcDbLine
 10
221.8278476891348
 20
247.833487748056
 30
0.0
 11
230.2163339741677
 21
247.833487748056
 31
0.0
  0
MTEXT
  5
37F
330
379
100
AcDbEntity
  8
2
  6
Continuous
 62
   134
370
     9
100
AcDbMText
 10
226.2163339741677
 20
247.833487748056
 30
0.0
 40
8.0
 41
28.57142857142857
 71
     7
 72
     1
  1
4
  7
ＭＳ ゴシック
 73
     1
 44
1.0
1001
ACAD
1000
ACAD_MTEXT_DEFINED_HEIGHT_BEGIN
1070
    46
1040
8.0
1000
ACAD_MTEXT_DEFINED_HEIGHT_END
  0
INSERT
  5
380
330
379
100
AcDbEntity
  8
2
  6
Continuous
 62
   134
370
    25
100
AcDbBlockReference
  2
_DOT
 10
221.8278476891348
 20
247.833487748056
 30
0.0
 41
0.6000000000000001
 42
0.6000000000000001
 43
0.6000000000000001
 50
179.9999999999998
  0
INSERT
  5
381
330
379
100
AcDbEntity
  8
2
  6
Continuous
 62
   134
370
    25
100
AcDbBlockReference
  2
_DOT
 10
225.8278476891414
 20
247.833487748056
 30
0.0
 41
0.6000000000000001
 42
0.6000000000000001
 43
0.6000000000000001
 50
359.9999999999997
  0
ENDBLK
  5
37B
330
379
100
AcDbEntity
  8
0
100
AcDbBlockEnd
  0
BLOCK
  5
384
330
383
100
AcDbEntity
  8
0
100
AcDbBlockBegin
  2
Dim49
 70
     0
 10
0.0
 20
0.0
 30
0.0
  3
Dim49
  1

  0
LINE
  5
386
330
383
100
AcDbEntity
  8
2
  6
Continuous
 62
   134
370
    25
100
AcDbLine
 10
221.8278476891348
 20
239.833487748056
 30
0.0
 11
221.8278476891348
 21
247.833487748056
 31
0.0
  0
LINE
  5
387
330
383
100
AcDbEntity
  8
2
  6
Continuous
 62
   134
370
    25
100
AcDbLine
 10
217.8278476891282
 20
244.1131851759117
 30
0.0
 11
217.8278476891282
 21
247.833487748056
 31
0.0
  0
LINE
  5
388
330
383
100
AcDbEntity
  8
2
  6
Continuous
 62
   134
370
    25
100
AcDbLine
 10
221.8278476891348
 20
247.833487748056
 30
0.0
 11
212.8338454949725
 21
247.833487748056
 31
0.0
  0
MTEXT
  5
389
330
383
100
AcDbEntity
  8
2
  6
Continuous
 62
   134
370
     9
100
AcDbMText
 10
216.8338454949724
 20
247.833487748056
 30
0.0
 40
8.0
 41
28.57142857142857
 71
     9
 72
     1
  1
4
  7
ＭＳ ゴシック
 73
     1
 44
1.0
1001
ACAD
1000
ACAD_MTEXT_DEFINED_HEIGHT_BEGIN
1070
    46
1040
8.0
1000
ACAD_MTEXT_DEFINED_HEIGHT_END
  0
INSERT
  5
38A
330
383
100
AcDbEntity
  8
2
  6
Continuous
 62
   134
370
    25
100
AcDbBlockReference
  2
_DOT
 10
221.8278476891348
 20
247.833487748056
 30
0.0
 41
0.6000000000000001
 42
0.6000000000000001
 43
0.6000000000000001
 50
359.9999999999997
  0
INSERT
  5
38B
330
383
100
AcDbEntity
  8
2
  6
Continuous
 62
   134
370
    25
100
AcDbBlockReference
  2
_DOT
 10
217.8278476891282
 20
247.833487748056
 30
0.0
 41
0.6000000000000001
 42
0.6000000000000001
 43
0.6000000000000001
 50
179.9999999999998
  0
ENDBLK
  5
385
330
383
100
AcDbEntity
  8
0
100
AcDbBlockEnd
  0
ENDSEC
  0
SECTION
  2
ENTITIES
  0
ARC
  5
E0
330
1F
100
AcDbEntity
  8
1
  6
Continuous
 62
     7
370
     9
100
AcDbCircle
 10
224.3977621120852
 20
277.3228546334835
 30
0.0
 40
249.0
100
AcDbArc
 50
254.1720473468542
 51
269.40871223761
  0
ARC
  5
E1
330
1F
100
AcDbEntity
  8
1
  6
Continuous
 62
     7
370
     9
100
AcDbCircle
 10
162.3633496043942
 20
139.7321444449408
 30
0.0
 40
95.0
100
AcDbArc
 50
187.6593264331777
 51
230.1865285229986
  0
ARC
  5
E2
330
1F
100
AcDbEntity
  8
1
  6
Continuous
 62
     7
370
     9
100
AcDbCircle
 10
129.1409202244686
 20
146.8599596150118
 30
0.0
 40
61.99999999999999
100
AcDbArc
 50
130.2133101340469
 51
177.4757275899075
  0
ARC
  5
E3
330
1F
100
AcDbEntity
  8
1
  6
Continuous
 62
     7
370
     9
100
AcDbCircle
 10
217.8278476891341
 20
8.087643842750913
 30
0.0
 40
229.7458439053052
100
AcDbArc
 50
89.99999999999991
 51
106.8922937344025
  0
ARC
  5
E4
330
1F
100
AcDbEntity
  8
1
  6
Continuous
 62
     7
370
     9
100
AcDbCircle
 10
194.0778476891355
 20
143.9971897240619
 30
0.0
 40
127.0
100
AcDbArc
 50
177.475727589907
 51
187.6593264331779
  0
ARC
  5
E5
330
1F
100
AcDbEntity
  8
1
  6
Continuous
 62
     7
370
     9
100
AcDbCircle
 10
201.77486947496
 20
60.9497773530864
 30
0.0
 40
174.5
100
AcDbArc
 50
106.8922937344026
 51
130.2133101340461
  0
LINE
  5
E6
330
1F
100
AcDbEntity
  8
1
  6
Continuous
 62
     7
370
     9
100
AcDbLine
 10
221.8278476891348
 20
237.833487748056
 30
0.0
 11
217.8278476891341
 21
237.833487748056
 31
0.0
  0
ARC
  5
E7
330
1F
100
AcDbEntity
  8
1
  6
Continuous
 62
     7
370
     9
100
AcDbCircle
 10
197.2591721459496
 20
181.5953928753756
 30
0.0
 40
149.5
100
AcDbArc
 50
230.1865285229983
 51
254.1720473468541
  0
ARC
  5
E8
330
1F
100
AcDbEntity
  8
1
  6
Continuous
 62
     7
370
     9
100
AcDbCircle
 10
219.2579332661837
 20
277.3228546334835
 30
0.0
 40
249.0
100
AcDbArc
 50
270.5912877623889
 51
285.8279526531449
  0
ARC
  5
E9
330
1F
100
AcDbEntity
  8
1
  6
Continuous
 62
     7
370
     9
100
AcDbCircle
 10
249.5778476891319
 20
143.9971897240619
 30
0.0
 40
127.0
100
AcDbArc
 50
352.3406735668215
 51
2.524272410092967
  0
ARC
  5
EA
330
1F
100
AcDbEntity
  8
1
  6
Continuous
 62
     7
370
     9
100
AcDbCircle
 10
314.5147751537996
 20
146.8599596150118
 30
0.0
 40
61.99999999999999
100
AcDbArc
 50
2.524272410092471
 51
49.78668986595358
  0
ARC
  5
EB
330
1F
100
AcDbEntity
  8
1
  6
Continuous
 62
     7
370
     9
100
AcDbCircle
 10
241.8808259033096
 20
60.9497773530864
 30
0.0
 40
174.5
100
AcDbArc
 50
49.78668986595445
 51
73.1077062655976
  0
ARC
  5
EC
330
1F
100
AcDbEntity
  8
1
  6
Continuous
 62
     7
370
     9
100
AcDbCircle
 10
225.8278476891341
 20
8.087643842750913
 30
0.0
 40
229.7458439053052
100
AcDbArc
 50
73.10770626559737
 51
89.99999999999991
  0
LINE
  5
ED
330
1F
100
AcDbEntity
  8
1
  6
Continuous
 62
     7
370
     9
100
AcDbLine
 10
221.8278476891348
 20
237.833487748056
 30
0.0
 11
225.8278476891341
 21
237.833487748056
 31
0.0
  0
ARC
  5
EE
330
1F
100
AcDbEntity
  8
1
  6
Continuous
 62
     7
370
     9
100
AcDbCircle
 10
281.292345773874
 20
139.7321444449408
 30
0.0
 40
95.0
100
AcDbArc
 50
309.8134714770011
 51
352.3406735668216
  0
ARC
  5
EF
330
1F
100
AcDbEntity
  8
1
  6
Continuous
 62
     7
370
     9
100
AcDbCircle
 10
246.3965232323186
 20
181.5953928753756
 30
0.0
 40
149.5
100
AcDbArc
 50
285.8279526531455
 51
309.8134714770012
  0
ARC
  5
F0
330
1F
100
AcDbEntity
  8
1
  6
Continuous
 62
     7
370
     9
100
AcDbCircle
 10
224.3977621120852
 20
277.3228546334835
 30
0.0
 40
246.0
100
AcDbArc
 50
254.1720473468542
 51
269.4087122376103
  0
ARC
  5
F1
330
1F
100
AcDbEntity
  8
1
  6
Continuous
 62
     7
370
     9
100
AcDbCircle
 10
219.2579332661837
 20
277.3228546334835
 30
0.0
 40
246.0
100
AcDbArc
 50
270.591287762389
 51
285.8279526531448
  0
ARC
  5
F2
330
1F
100
AcDbEntity
  8
1
  6
Continuous
 62
     7
370
     9
100
AcDbCircle
 10
314.5147751537996
 20
146.8599596150118
 30
0.0
 40
59.0
100
AcDbArc
 50
2.524272410092358
 51
49.78668986595372
  0
ARC
  5
F3
330
1F
100
AcDbEntity
  8
1
  6
Continuous
 62
     7
370
     9
100
AcDbCircle
 10
249.5778476891319
 20
143.9971897240619
 30
0.0
 40
124.0
100
AcDbArc
 50
352.3406735668213
 51
2.524272410092926
  0
ARC
  5
F4
330
1F
100
AcDbEntity
  8
1
  6
Continuous
 62
     7
370
     9
100
AcDbCircle
 10
281.292345773874
 20
139.7321444449408
 30
0.0
 40
92.0
100
AcDbArc
 50
309.8134714770011
 51
352.3406735668214
  0
ARC
  5
F5
330
1F
100
AcDbEntity
  8
1
  6
Continuous
 62
     7
370
     9
100
AcDbCircle
 10
246.3965232323186
 20
181.5953928753756
 30
0.0
 40
146.5
100
AcDbArc
 50
285.8279526531448
 51
309.8134714770013
  0
ARC
  5
F6
330
1F
100
AcDbEntity
  8
1
  6
Continuous
 62
     7
370
     9
100
AcDbCircle
 10
197.2591721459496
 20
181.5953928753756
 30
0.0
 40
146.5
100
AcDbArc
 50
230.1865285229981
 51
254.1720473468542
  0
ARC
  5
F7
330
1F
100
AcDbEntity
  8
1
  6
Continuous
 62
     7
370
     9
100
AcDbCircle
 10
162.3633496043942
 20
139.7321444449408
 30
0.0
 40
92.0
100
AcDbArc
 50
187.659326433178
 51
230.1865285229981
  0
ARC
  5
F8
330
1F
100
AcDbEntity
  8
1
  6
Continuous
 62
     7
370
     9
100
AcDbCircle
 10
194.0778476891355
 20
143.9971897240619
 30
0.0
 40
124.0
100
AcDbArc
 50
177.4757275899071
 51
187.6593264331781
  0
ARC
  5
F9
330
1F
100
AcDbEntity
  8
1
  6
Continuous
 62
     7
370
     9
100
AcDbCircle
 10
129.1409202244686
 20
146.8599596150118
 30
0.0
 40
59.0
100
AcDbArc
 50
130.2133101340463
 51
177.4757275899076
  0
ARC
  5
FA
330
1F
100
AcDbEntity
  8
1
  6
Continuous
 62
     7
370
     9
100
AcDbCircle
 10
201.77486947496
 20
60.9497773530864
 30
0.0
 40
171.5
100
AcDbArc
 50
106.8922937344025
 51
130.2133101340459
  0
ARC
  5
FB
330
1F
100
AcDbEntity
  8
1
  6
Continuous
 62
     7
370
     9
100
AcDbCircle
 10
217.8278476891341
 20
8.087643842750913
 30
0.0
 40
226.7458439053052
100
AcDbArc
 50
89.99999999999991
 51
106.8922937344023
  0
LINE
  5
FC
330
1F
100
AcDbEntity
  8
1
  6
Continuous
 62
     7
370
     9
100
AcDbLine
 10
225.8278476891341
 20
234.833487748056
 30
0.0
 11
217.8278476891341
 21
234.833487748056
 31
0.0
  0
ARC
  5
FD
330
1F
100
AcDbEntity
  8
1
  6
Continuous
 62
     7
370
     9
100
AcDbCircle
 10
225.8278476891341
 20
8.087643842750913
 30
0.0
 40
226.7458439053052
100
AcDbArc
 50
73.10770626559751
 51
89.99999999999991
  0
ARC
  5
FE
330
1F
100
AcDbEntity
  8
1
  6
Continuous
 62
     7
370
     9
100
AcDbCircle
 10
241.8808259033096
 20
60.9497773530864
 30
0.0
 40
171.5
100
AcDbArc
 50
49.78668986595452
 51
73.10770626559776
  0
ARC
  5
FF
330
1F
100
AcDbEntity
  8
1
  6
Continuous
 62
     7
370
     9
100
AcDbCircle
 10
249.5778476891341
 20
143.9971897240619
 30
0.0
 40
127.0
100
AcDbArc
 50
352.3406735668214
 51
2.524272410092983
  0
ARC
  5
100
330
1F
100
AcDbEntity
  8
1
  6
Continuous
 62
     7
370
     9
100
AcDbCircle
 10
249.5778476891341
 20
143.9971897240619
 30
0.0
 40
124.0
100
AcDbArc
 50
352.3406735668212
 51
2.52427241009297
  0
LINE
  5
101
330
1F
100
AcDbEntity
  8
1
  6
Continuous
 62
     7
370
    25
100
AcDbLine
 10
54.07784768913516
 20
276.633487748056
 30
0.0
 11
35.72531473083982
 21
276.633487748056
 31
0.0
  0
LINE
  5
102
330
1F
100
AcDbEntity
  8
1
  6
Continuous
 62
     7
370
    25
100
AcDbLine
 10
57.07784768913516
 20
257.833487748056
 30
0.0
 11
35.72531473083982
 21
257.833487748056
 31
0.0
  0
LINE
  5
103
330
1F
100
AcDbEntity
  8
1
  6
Continuous
 62
     7
370
    25
100
AcDbLine
 10
57.07784768913516
 20
272.633487748056
 30
0.0
 11
57.07784768913516
 21
257.833487748056
 31
0.0
  0
LINE
  5
104
330
1F
100
AcDbEntity
  8
1
  6
Continuous
 62
     7
370
    25
100
AcDbLine
 10
54.07784768913516
 20
272.633487748056
 30
0.0
 11
57.07784768913516
 21
272.633487748056
 31
0.0
  0
LINE
  5
105
330
1F
100
AcDbEntity
  8
1
  6
Continuous
 62
     7
370
    25
100
AcDbLine
 10
54.07784768913516
 20
276.633487748056
 30
0.0
 11
54.07784768913516
 21
272.633487748056
 31
0.0
  0
INSERT
  5
10B
330
1F
100
AcDbEntity
  8
0
100
AcDbBlockReference
  2
*G16
 10
0.0
 20
0.0
 30
0.0
  0
INSERT
  5
111
330
1F
100
AcDbEntity
  8
0
100
AcDbBlockReference
  2
*G17
 10
0.0
 20
0.0
 30
0.0
  0
INSERT
  5
117
330
1F
100
AcDbEntity
  8
0
100
AcDbBlockReference
  2
*G18
 10
0.0
 20
0.0
 30
0.0
  0
INSERT
  5
11D
330
1F
100
AcDbEntity
  8
0
100
AcDbBlockReference
  2
*G19
 10
0.0
 20
0.0
 30
0.0
  0
INSERT
  5
123
330
1F
100
AcDbEntity
  8
0
100
AcDbBlockReference
  2
*G20
 10
0.0
 20
0.0
 30
0.0
  0
INSERT
  5
129
330
1F
100
AcDbEntity
  8
0
100
AcDbBlockReference
  2
*G21
 10
0.0
 20
0.0
 30
0.0
  0
INSERT
  5
12F
330
1F
100
AcDbEntity
  8
0
100
AcDbBlockReference
  2
*G22
 10
0.0
 20
0.0
 30
0.0
  0
INSERT
  5
135
330
1F
100
AcDbEntity
  8
0
100
AcDbBlockReference
  2
*G23
 10
0.0
 20
0.0
 30
0.0
  0
INSERT
  5
13B
330
1F
100
AcDbEntity
  8
0
100
AcDbBlockReference
  2
*G24
 10
0.0
 20
0.0
 30
0.0
  0
INSERT
  5
141
330
1F
100
AcDbEntity
  8
0
100
AcDbBlockReference
  2
*G25
 10
0.0
 20
0.0
 30
0.0
  0
INSERT
  5
147
330
1F
100
AcDbEntity
  8
0
100
AcDbBlockReference
  2
*G26
 10
0.0
 20
0.0
 30
0.0
  0
INSERT
  5
14D
330
1F
100
AcDbEntity
  8
0
100
AcDbBlockReference
  2
*G27
 10
0.0
 20
0.0
 30
0.0
  0
INSERT
  5
153
330
1F
100
AcDbEntity
  8
0
100
AcDbBlockReference
  2
*G28
 10
0.0
 20
0.0
 30
0.0
  0
INSERT
  5
159
330
1F
100
AcDbEntity
  8
0
100
AcDbBlockReference
  2
*G29
 10
0.0
 20
0.0
 30
0.0
  0
INSERT
  5
15F
330
1F
100
AcDbEntity
  8
0
100
AcDbBlockReference
  2
*G30
 10
0.0
 20
0.0
 30
0.0
  0
LINE
  5
160
330
1F
100
AcDbEntity
  8
2
  6
DASHDOT
 62
   134
370
     9
100
AcDbLine
 10
221.8278476891348
 20
255.9175202464103
 30
0.0
 11
221.8278476891348
 21
22.66251802342522
 31
0.0
  0
LINE
  5
161
330
1F
100
AcDbEntity
  8
2
  6
DASHDOT
 62
   134
370
     9
100
AcDbLine
 10
206.7513975790382
 20
146.0876009004387
 30
0.0
 11
240.1112607745265
 21
146.0876009004387
 31
0.0
  0
INSERT
  5
162
330
1F
100
AcDbEntity
  8
2
  6
Continuous
 62
   134
370
     9
100
AcDbBlockReference
  2
_CLOSED
 10
221.8278476891348
 20
146.0876009004387
 30
0.0
 41
8.0
 42
8.0
 43
8.0
 50
323.355247801497
  0
POLYLINE
  5
163
330
1F
100
AcDbEntity
  8
2
  6
Continuous
 62
   134
370
     9
100
AcDb2dPolyline
 66
     1
 10
0.0
 20
0.0
 30
0.0
  0
VERTEX
  5
164
330
163
100
AcDbEntity
  8
2
  6
Continuous
 62
   134
370
     9
100
AcDbVertex
100
AcDb2dVertex
 10
221.8278476891348
 20
146.0876009004387
 30
0.0
  0
VERTEX
  5
165
330
163
100
AcDbEntity
  8
2
  6
Continuous
 62
   134
370
     9
100
AcDbVertex
100
AcDb2dVertex
 10
183.3236505333222
 20
174.730030729598
 30
0.0
  0
VERTEX
  5
166
330
163
100
AcDbEntity
  8
2
  6
Continuous
 62
   134
370
     9
100
AcDbVertex
100
AcDb2dVertex
 10
151.3236505333221
 20
174.730030729598
 30
0.0
  0
SEQEND
  5
167
330
163
100
AcDbEntity
  8
2
  6
Continuous
 62
   134
370
     9
  0
MTEXT
  5
168
330
1F
100
AcDbEntity
  8
2
  6
Continuous
 62
   134
370
     9
100
AcDbMText
 10
183.3236505333222
 20
174.730030729598
 30
0.0
 40
8.0
 41
40.96627694850068
 71
     9
 72
     1
  1
{\fＭＳ ゴシック;\W0.714286;排水中心}
 73
     1
 44
1.0
1001
ACAD
1000
ACAD_MTEXT_DEFINED_HEIGHT_BEGIN
1070
    46
1040
8.0
1000
ACAD_MTEXT_DEFINED_HEIGHT_END
  0
LINE
  5
169
330
1F
100
AcDbEntity
  8
2
  6
DASHDOT
 62
   134
370
     9
100
AcDbLine
 10
45.33997133134071
 20
143.9971897240619
 30
0.0
 11
392.2666089694052
 21
143.9971897240619
 31
0.0
  0
INSERT
  5
16F
330
1F
100
AcDbEntity
  8
0
100
AcDbBlockReference
  2
*G31
 10
0.0
 20
0.0
 30
0.0
  0
INSERT
  5
175
330
1F
100
AcDbEntity
  8
0
100
AcDbBlockReference
  2
*G32
 10
0.0
 20
0.0
 30
0.0
  0
INSERT
  5
17B
330
1F
100
AcDbEntity
  8
0
100
AcDbBlockReference
  2
*G33
 10
0.0
 20
0.0
 30
0.0
  0
INSERT
  5
181
330
1F
100
AcDbEntity
  8
0
100
AcDbBlockReference
  2
*G34
 10
0.0
 20
0.0
 30
0.0
  0
INSERT
  5
187
330
1F
100
AcDbEntity
  8
0
100
AcDbBlockReference
  2
*G35
 10
0.0
 20
0.0
 30
0.0
  0
INSERT
  5
18D
330
1F
100
AcDbEntity
  8
0
100
AcDbBlockReference
  2
*G36
 10
0.0
 20
0.0
 30
0.0
  0
INSERT
  5
193
330
1F
100
AcDbEntity
  8
0
100
AcDbBlockReference
  2
*G37
 10
0.0
 20
0.0
 30
0.0
  0
INSERT
  5
199
330
1F
100
AcDbEntity
  8
0
100
AcDbBlockReference
  2
*G38
 10
0.0
 20
0.0
 30
0.0
  0
INSERT
  5
19F
330
1F
100
AcDbEntity
  8
0
100
AcDbBlockReference
  2
*G39
 10
0.0
 20
0.0
 30
0.0
  0
INSERT
  5
1A5
330
1F
100
AcDbEntity
  8
0
100
AcDbBlockReference
  2
*G40
 10
0.0
 20
0.0
 30
0.0
  0
INSERT
  5
1AB
330
1F
100
AcDbEntity
  8
0
100
AcDbBlockReference
  2
*G41
 10
0.0
 20
0.0
 30
0.0
  0
INSERT
  5
1B1
330
1F
100
AcDbEntity
  8
0
100
AcDbBlockReference
  2
*G42
 10
0.0
 20
0.0
 30
0.0
  0
INSERT
  5
1B7
330
1F
100
AcDbEntity
  8
0
100
AcDbBlockReference
  2
*G43
 10
0.0
 20
0.0
 30
0.0
  0
MTEXT
  5
1B8
330
1F
100
AcDbEntity
  8
2
  6
Continuous
 62
   134
370
     9
100
AcDbMText
 10
310.2007446611649
 20
224.5138975855509
 30
0.0
 40
6.0
 41
55.6808454381593
 71
     7
 72
     1
  1
{\fＭＳ ゴシック;\W0.714286;(表よりW3深さ4)}
 73
     1
 44
1.0
1001
ACAD
1000
ACAD_MTEXT_DEFINED_HEIGHT_BEGIN
1070
    46
1040
6.0
1000
ACAD_MTEXT_DEFINED_HEIGHT_END
  0
INSERT
  5
1B9
330
1F
100
AcDbEntity
  8
2
  6
Continuous
 62
   134
370
     9
100
AcDbBlockReference
  2
_CLOSED
 10
48.45983345851819
 20
276.633487748056
 30
0.0
 41
2.0
 42
2.0
 43
2.0
 50
280.847490197834
  0
POLYLINE
  5
1BA
330
1F
100
AcDbEntity
  8
2
  6
Continuous
 62
   134
370
     9
100
AcDb2dPolyline
 66
     1
 10
0.0
 20
0.0
 30
0.0
  0
VERTEX
  5
1BB
330
1BA
100
AcDbEntity
  8
2
  6
Continuous
 62
   134
370
     9
100
AcDbVertex
100
AcDb2dVertex
 10
48.45983345851819
 20
276.633487748056
 30
0.0
  0
VERTEX
  5
1BC
330
1BA
100
AcDbEntity
  8
2
  6
Continuous
 62
   134
370
     9
100
AcDbVertex
100
AcDb2dVertex
 10
47.37651729669342
 20
282.2869674374222
 30
0.0
  0
VERTEX
  5
1BD
330
1BA
100
AcDbEntity
  8
2
  6
Continuous
 62
   134
370
     9
100
AcDbVertex
100
AcDb2dVertex
 10
31.37651729669341
 20
282.2869674374222
 30
0.0
  0
SEQEND
  5
1BE
330
1BA
100
AcDbEntity
  8
2
  6
Continuous
 62
   134
370
     9
  0
MTEXT
  5
1BF
330
1F
100
AcDbEntity
  8
2
  6
Continuous
 62
   134
370
     9
100
AcDbMText
 10
47.37651729669342
 20
282.2869674374222
 30
0.0
 40
8.0
 41
19.65624859562836
 71
     9
 72
     1
  1
{\fＭＳ ゴシック;\W0.714286;表面}
 73
     1
 44
1.0
1001
ACAD
1000
ACAD_MTEXT_DEFINED_HEIGHT_BEGIN
1070
    46
1040
8.0
1000
ACAD_MTEXT_DEFINED_HEIGHT_END
  0
INSERT
  5
1CB
330
1F
100
AcDbEntity
  8
0
100
AcDbBlockReference
  2
*G44
 10
0.0
 20
0.0
 30
0.0
  0
DIMENSION
  5
1D6
330
1F
100
AcDbEntity
  8
2
  6
Continuous
 62
   134
370
     9
100
AcDbDimension
  2
Dim1
 10
274.5780210006371
 20
143.9971897240619
 30
0.0
 11
274.5780210006371
 21
154.1224286401346
 31
0.0
 70
   160
  1
<>
 71
     8
 42
-1.0
 53
89.99999999999991
  3
Standard
100
AcDbAlignedDimension
 13
240.1112607745265
 23
146.0876009004387
 33
0.0
 14
240.1112607745265
 24
143.9971897240619
 34
0.0
 50
-89.99999999999991
100
AcDbRotatedDimension
1001
ACAD
1000
DSTYLE
1002
{
1070
   279
1070
     1
1070
   340
1005
1CC
1070
   140
1040
8.0
1070
    40
1040
1.0
1070
   147
1040
0.0
1070
    76
1070
     0
1070
    75
1070
     0
1070
   344
1005
7A
1070
   343
1005
7A
1070
   173
1070
     1
1070
   289
1070
     2
1070
   288
1070
     1
1070
    77
1070
     1
1070
   172
1070
     1
1070
   174
1070
     0
1070
    74
1070
     0
1070
    73
1070
     0
1070
   284
1070
     8
1070
    78
1070
     8
1070
    42
1040
2.0
1070
    44
1040
0.5
1070
    43
1040
10.0
1070
   271
1070
     2
1070
    41
1040
0.6000000000000001
1002
}
  0
DIMENSION
  5
1DD
330
1F
100
AcDbEntity
  8
2
  6
Continuous
 62
   134
370
    25
100
AcDbDimension
  2
Dim2
 10
162.3633496043942
 20
139.7321444449408
 30
0.0
 11
116.9689740729204
 21
125.1856441748583
 31
0.0
 70
   164
  1
<>
 71
     5
 42
-1.0
  3
Standard
100
AcDbRadialDimension
 15
74.64657130836822
 25
103.2524678377416
 35
0.0
 40
0.0
1001
ACAD
1000
DSTYLE
1002
{
1070
   340
1005
1CC
1070
   140
1040
8.0
1070
    40
1040
1.0
1070
   147
1040
0.0
1070
    76
1070
     1
1070
    75
1070
     1
1070
   344
1005
7F
1070
   343
1005
7F
1070
   173
1070
     1
1070
   289
1070
     2
1070
   288
1070
     1
1070
    77
1070
     1
1070
   172
1070
     1
1070
   174
1070
     0
1070
    74
1070
     0
1070
    73
1070
     0
1070
   284
1070
     8
1070
    78
1070
     8
1070
    42
1040
0.0
1070
    44
1040
0.0
1070
    43
1040
10.0
1070
   271
1070
     2
1070
    41
1040
8.0
1002
}
  0
DIMENSION
  5
1E4
330
1F
100
AcDbEntity
  8
2
  6
Continuous
 62
   134
370
    25
100
AcDbDimension
  2
Dim3
 10
129.1409202244686
 20
146.8599596150118
 30
0.0
 11
104.1561532675734
 21
165.6419036067726
 31
0.0
 70
   164
  1
<>
 71
     5
 42
-1.0
  3
Standard
100
AcDbRadialDimension
 15
75.22214417420328
 25
177.4665861726924
 35
0.0
 40
0.0
1001
ACAD
1000
DSTYLE
1002
{
1070
   340
1005
1CC
1070
   140
1040
8.0
1070
    40
1040
1.0
1070
   147
1040
0.0
1070
    76
1070
     1
1070
    75
1070
     1
1070
   344
1005
7F
1070
   343
1005
7F
1070
   173
1070
     1
1070
   289
1070
     2
1070
   288
1070
     1
1070
    77
1070
     1
1070
   172
1070
     1
1070
   174
1070
     0
1070
    74
1070
     0
1070
    73
1070
     0
1070
   284
1070
     8
1070
    78
1070
     8
1070
    42
1040
0.0
1070
    44
1040
0.0
1070
    43
1040
10.0
1070
   271
1070
     2
1070
    41
1040
8.0
1002
}
  0
DIMENSION
  5
1EB
330
1F
100
AcDbEntity
  8
2
  6
Continuous
 62
   134
370
    25
100
AcDbDimension
  2
Dim4
 10
194.0778476891355
 20
143.9971897240619
 30
0.0
 11
91.24946422403237
 21
133.7094877401054
 31
0.0
 70
   164
  1
<>
 71
     5
 42
-1.0
  3
Standard
100
AcDbRadialDimension
 15
67.31405234871782
 25
136.2550846554976
 35
0.0
 40
0.0
1001
ACAD
1000
DSTYLE
1002
{
1070
   340
1005
1CC
1070
   140
1040
8.0
1070
    40
1040
1.0
1070
   147
1040
0.0
1070
    76
1070
     1
1070
    75
1070
     1
1070
   344
1005
7F
1070
   343
1005
7F
1070
   173
1070
     1
1070
   289
1070
     2
1070
   288
1070
     1
1070
    77
1070
     1
1070
   172
1070
     1
1070
   174
1070
     0
1070
    74
1070
     0
1070
    73
1070
     0
1070
   284
1070
     8
1070
    78
1070
     8
1070
    42
1040
0.0
1070
    44
1040
0.0
1070
    43
1040
10.0
1070
   271
1070
     2
1070
    41
1040
8.0
1002
}
  0
DIMENSION
  5
1F2
330
1F
100
AcDbEntity
  8
2
  6
Continuous
 62
   134
370
    25
100
AcDbDimension
  2
Dim5
 10
201.77486947496
 20
60.9497773530864
 30
0.0
 11
141.7327973585085
 21
169.4823214319118
 31
0.0
 70
   164
  1
<>
 71
     5
 42
-1.0
  3
Standard
100
AcDbRadialDimension
 15
112.4228850375352
 25
210.83797861354
 35
0.0
 40
0.0
1001
ACAD
1000
DSTYLE
1002
{
1070
   340
1005
1CC
1070
   140
1040
8.0
1070
    40
1040
1.0
1070
   147
1040
0.0
1070
    76
1070
     1
1070
    75
1070
     1
1070
   344
1005
7F
1070
   343
1005
7F
1070
   173
1070
     1
1070
   289
1070
     2
1070
   288
1070
     1
1070
    77
1070
     1
1070
   172
1070
     1
1070
   174
1070
     0
1070
    74
1070
     0
1070
    73
1070
     0
1070
   284
1070
     8
1070
    78
1070
     8
1070
    42
1040
0.0
1070
    44
1040
0.0
1070
    43
1040
10.0
1070
   271
1070
     2
1070
    41
1040
8.0
1002
}
  0
DIMENSION
  5
1F9
330
1F
100
AcDbEntity
  8
2
  6
Continuous
 62
   134
370
    25
100
AcDbDimension
  2
Dim6
 10
197.2591721459496
 20
181.5953928753756
 30
0.0
 11
152.8375459066908
 21
107.3187185590305
 31
0.0
 70
   164
  1
<>
 71
     5
 42
-1.0
  3
Standard
100
AcDbRadialDimension
 15
126.537507659939
 25
49.88094350732717
 35
0.0
 40
0.0
1001
ACAD
1000
DSTYLE
1002
{
1070
   340
1005
1CC
1070
   140
1040
8.0
1070
    40
1040
1.0
1070
   147
1040
0.0
1070
    76
1070
     1
1070
    75
1070
     1
1070
   344
1005
7F
1070
   343
1005
7F
1070
   173
1070
     1
1070
   289
1070
     2
1070
   288
1070
     1
1070
    77
1070
     1
1070
   172
1070
     1
1070
   174
1070
     0
1070
    74
1070
     0
1070
    73
1070
     0
1070
   284
1070
     8
1070
    78
1070
     8
1070
    42
1040
0.0
1070
    44
1040
0.0
1070
    43
1040
10.0
1070
   271
1070
     2
1070
    41
1040
8.0
1002
}
  0
DIMENSION
  5
200
330
1F
100
AcDbEntity
  8
2
  6
Continuous
 62
   134
370
    25
100
AcDbDimension
  2
Dim7
 10
217.8278476891341
 20
8.087643842750913
 30
0.0
 11
189.9079372099247
 21
206.5714334523616
 31
0.0
 70
   164
  1
<>
 71
     5
 42
-1.0
  3
Standard
100
AcDbRadialDimension
 15
181.2916856787117
 25
234.9097363675068
 35
0.0
 40
0.0
1001
ACAD
1000
DSTYLE
1002
{
1070
   340
1005
1CC
1070
   140
1040
8.0
1070
    40
1040
1.0
1070
   147
1040
0.0
1070
    76
1070
     1
1070
    75
1070
     1
1070
   344
1005
7F
1070
   343
1005
7F
1070
   173
1070
     1
1070
   289
1070
     2
1070
   288
1070
     1
1070
    77
1070
     1
1070
   172
1070
     1
1070
   174
1070
     0
1070
    74
1070
     0
1070
    73
1070
     0
1070
   284
1070
     8
1070
    78
1070
     8
1070
    42
1040
0.0
1070
    44
1040
0.0
1070
    43
1040
10.0
1070
   271
1070
     2
1070
    41
1040
8.0
1002
}
  0
DIMENSION
  5
207
330
1F
100
AcDbEntity
  8
2
  6
Continuous
 62
   134
370
    25
100
AcDbDimension
  2
Dim8
 10
224.3977621120852
 20
277.3228546334835
 30
0.0
 11
187.853205919653
 21
59.47956089140622
 31
0.0
 70
   164
  1
<>
 71
     5
 42
-1.0
  3
Standard
100
AcDbRadialDimension
 15
187.6558234861812
 25
31.04855644950658
 35
0.0
 40
0.0
1001
ACAD
1000
DSTYLE
1002
{
1070
   340
1005
1CC
1070
   140
1040
8.0
1070
    40
1040
1.0
1070
   147
1040
0.0
1070
    76
1070
     1
1070
    75
1070
     1
1070
   344
1005
7F
1070
   343
1005
7F
1070
   173
1070
     1
1070
   289
1070
     2
1070
   288
1070
     1
1070
    77
1070
     1
1070
   172
1070
     1
1070
   174
1070
     0
1070
    74
1070
     0
1070
    73
1070
     0
1070
   284
1070
     8
1070
    78
1070
     8
1070
    42
1040
0.0
1070
    44
1040
0.0
1070
    43
1040
10.0
1070
   271
1070
     2
1070
    41
1040
8.0
1002
}
  0
DIMENSION
  5
211
330
1F
100
AcDbEntity
  8
2
  6
Continuous
 62
   134
370
    25
100
AcDbDimension
  2
Dim9
 10
217.8278476891282
 20
247.833487748056
 30
0.0
 11
184.4488207225899
 21
247.833487748056
 31
0.0
 70
   160
  1
<>
 71
     8
 42
-1.0
  3
Standard
100
AcDbAlignedDimension
 13
151.0697937560508
 23
232.9205690992472
 33
0.0
 14
217.8278476891282
 24
242.8334877480542
 34
0.0
100
AcDbRotatedDimension
1001
ACAD
1000
DSTYLE
1002
{
1070
   279
1070
     1
1070
   340
1005
1CC
1070
   140
1040
8.0
1070
    40
1040
1.0
1070
   147
1040
0.0
1070
    76
1070
     0
1070
    75
1070
     0
1070
   344
1005
7A
1070
   343
1005
7A
1070
   173
1070
     1
1070
   289
1070
     2
1070
   288
1070
     1
1070
    77
1070
     1
1070
   172
1070
     1
1070
   174
1070
     0
1070
    74
1070
     0
1070
    73
1070
     0
1070
   284
1070
     8
1070
    78
1070
     8
1070
    42
1040
2.0
1070
    44
1040
0.0
1070
    43
1040
10.0
1070
   271
1070
     2
1070
    41
1040
0.6000000000000001
1002
}
  0
DIMENSION
  5
21B
330
1F
100
AcDbEntity
  8
2
  6
Continuous
 62
   134
370
    25
100
AcDbDimension
  2
Dim10
 10
151.0697937560508
 20
247.833487748056
 30
0.0
 11
120.0906687523435
 21
247.833487748056
 31
0.0
 70
   160
  1
<>
 71
     8
 42
-1.0
  3
Standard
100
AcDbAlignedDimension
 13
89.11154374863618
 23
199.2060156171363
 33
0.0
 14
151.0697937560508
 24
232.9205690992472
 34
0.0
100
AcDbRotatedDimension
1001
ACAD
1000
DSTYLE
1002
{
1070
   279
1070
     1
1070
   340
1005
1CC
1070
   140
1040
8.0
1070
    40
1040
1.0
1070
   147
1040
0.0
1070
    76
1070
     0
1070
    75
1070
     0
1070
   344
1005
7A
1070
   343
1005
7A
1070
   173
1070
     1
1070
   289
1070
     2
1070
   288
1070
     1
1070
    77
1070
     1
1070
   172
1070
     1
1070
   174
1070
     0
1070
    74
1070
     0
1070
    73
1070
     0
1070
   284
1070
     8
1070
    78
1070
     8
1070
    42
1040
2.0
1070
    44
1040
0.0
1070
    43
1040
10.0
1070
   271
1070
     2
1070
    41
1040
0.6000000000000001
1002
}
  0
DIMENSION
  5
225
330
1F
100
AcDbEntity
  8
2
  6
Continuous
 62
   134
370
    25
100
AcDbDimension
  2
Dim11
 10
89.11154374863618
 20
247.833487748056
 30
0.0
 11
78.15631273417021
 21
247.833487748056
 31
0.0
 70
   160
  1
<>
 71
     8
 42
-1.0
  3
Standard
100
AcDbAlignedDimension
 13
67.20108171970423
 23
154.5906016648762
 33
0.0
 14
89.11154374863618
 24
199.2060156171363
 34
0.0
100
AcDbRotatedDimension
1001
ACAD
1000
DSTYLE
1002
{
1070
   279
1070
     1
1070
   340
1005
1CC
1070
   140
1040
8.0
1070
    40
1040
1.0
1070
   147
1040
0.0
1070
    76
1070
     0
1070
    75
1070
     0
1070
   344
1005
7A
1070
   343
1005
7A
1070
   173
1070
     1
1070
   289
1070
     2
1070
   288
1070
     1
1070
    77
1070
     1
1070
   172
1070
     1
1070
   174
1070
     0
1070
    74
1070
     0
1070
    73
1070
     0
1070
   284
1070
     8
1070
    78
1070
     8
1070
    42
1040
2.0
1070
    44
1040
0.0
1070
    43
1040
10.0
1070
   271
1070
     2
1070
    41
1040
0.6000000000000001
1002
}
  0
DIMENSION
  5
22F
330
1F
100
AcDbEntity
  8
2
  6
Continuous
 62
   134
370
     9
100
AcDbDimension
  2
Dim12
 10
67.0778476891348
 20
257.833487748056
 30
0.0
 11
142.4528476891341
 21
257.833487748056
 31
0.0
 70
   160
  1
<>
 71
     8
 42
-1.0
  3
Standard
100
AcDbAlignedDimension
 13
217.8278476891341
 23
240.7721981011906
 33
0.0
 14
67.0778476891348
 24
172.1171207560794
 34
0.0
 50
179.9999999999998
100
AcDbRotatedDimension
1001
ACAD
1000
DSTYLE
1002
{
1070
   279
1070
     1
1070
   340
1005
1CC
1070
   140
1040
8.0
1070
    40
1040
1.0
1070
   147
1040
0.0
1070
    76
1070
     0
1070
    75
1070
     0
1070
   344
1005
7A
1070
   343
1005
7A
1070
   173
1070
     1
1070
   289
1070
     2
1070
   288
1070
     1
1070
    77
1070
     1
1070
   172
1070
     1
1070
   174
1070
     0
1070
    74
1070
     0
1070
    73
1070
     0
1070
   284
1070
     8
1070
    78
1070
     8
1070
    42
1040
2.0
1070
    44
1040
0.5
1070
    43
1040
10.0
1070
   271
1070
     2
1070
    41
1040
0.6000000000000001
1002
}
  0
DIMENSION
  5
239
330
1F
100
AcDbEntity
  8
2
  6
Continuous
 62
   134
370
     9
100
AcDbDimension
  2
Dim13
 10
225.8278476891341
 20
257.833487748056
 30
0.0
 11
301.2028476891319
 21
257.833487748056
 31
0.0
 70
   160
  1
<>
 71
     8
 42
-1.0
  3
Standard
100
AcDbAlignedDimension
 13
376.5778476891312
 23
160.1578492185439
 33
0.0
 14
225.8278476891341
 24
240.6245527735668
 34
0.0
 50
179.9999999999998
100
AcDbRotatedDimension
1001
ACAD
1000
DSTYLE
1002
{
1070
   279
1070
     1
1070
   340
1005
1CC
1070
   140
1040
8.0
1070
    40
1040
1.0
1070
   147
1040
0.0
1070
    76
1070
     0
1070
    75
1070
     0
1070
   344
1005
7A
1070
   343
1005
7A
1070
   173
1070
     1
1070
   289
1070
     2
1070
   288
1070
     1
1070
    77
1070
     1
1070
   172
1070
     1
1070
   174
1070
     0
1070
    74
1070
     0
1070
    73
1070
     0
1070
   284
1070
     8
1070
    78
1070
     8
1070
    42
1040
2.0
1070
    44
1040
0.5
1070
    43
1040
10.0
1070
   271
1070
     2
1070
    41
1040
0.6000000000000001
1002
}
  0
DIMENSION
  5
243
330
1F
100
AcDbEntity
  8
2
  6
Continuous
 62
   134
370
     9
100
AcDbDimension
  2
Dim14
 10
225.8278476891341
 20
257.833487748056
 30
0.0
 11
221.8278476891348
 21
257.833487748056
 31
0.0
 70
   160
  1
<>
 71
     8
 42
-1.0
  3
Standard
100
AcDbAlignedDimension
 13
217.8278476891348
 23
237.833487748056
 33
0.0
 14
225.8278476891341
 24
237.833487748056
 34
0.0
100
AcDbRotatedDimension
1001
ACAD
1000
DSTYLE
1002
{
1070
   279
1070
     1
1070
   340
1005
1CC
1070
   140
1040
8.0
1070
    40
1040
1.0
1070
   147
1040
0.0
1070
    76
1070
     0
1070
    75
1070
     0
1070
   344
1005
7A
1070
   343
1005
7A
1070
   173
1070
     1
1070
   289
1070
     2
1070
   288
1070
     1
1070
    77
1070
     1
1070
   172
1070
     1
1070
   174
1070
     0
1070
    74
1070
     0
1070
    73
1070
     0
1070
   284
1070
     8
1070
    78
1070
     8
1070
    42
1040
2.0
1070
    44
1040
0.5
1070
    43
1040
10.0
1070
   271
1070
     2
1070
    41
1040
0.6000000000000001
1002
}
  0
DIMENSION
  5
24D
330
1F
100
AcDbEntity
  8
2
  6
Continuous
 62
   134
370
    25
100
AcDbDimension
  2
Dim15
 10
67.07784768913552
 20
247.833487748056
 30
0.0
 11
56.65911798913912
 21
247.833487748056
 31
0.0
 70
   160
  1
0.12
 71
     8
 42
-1.0
  3
Standard
100
AcDbAlignedDimension
 13
67.20108171970423
 23
149.5906016648776
 33
0.0
 14
67.07784768913552
 24
143.9971897240619
 34
0.0
 50
179.9999999999998
100
AcDbRotatedDimension
1001
ACAD
1000
DSTYLE
1002
{
1070
   279
1070
     1
1070
   340
1005
1CC
1070
   140
1040
8.0
1070
    40
1040
1.0
1070
   147
1040
0.0
1070
    76
1070
     0
1070
    75
1070
     0
1070
   344
1005
7A
1070
   343
1005
7A
1070
   173
1070
     1
1070
   289
1070
     2
1070
   288
1070
     1
1070
    77
1070
     1
1070
   172
1070
     1
1070
   174
1070
     0
1070
    74
1070
     0
1070
    73
1070
     0
1070
   284
1070
     8
1070
    78
1070
     8
1070
    42
1040
2.0
1070
    44
1040
0.0
1070
    43
1040
10.0
1070
   271
1070
     2
1070
    41
1040
0.6000000000000001
1002
}
  0
DIMENSION
  5
257
330
1F
100
AcDbEntity
  8
2
  6
Continuous
 62
   134
370
     9
100
AcDbDimension
  2
Dim16
 10
27.07784768913625
 20
28.33611695483014
 30
0.0
 11
27.07784768913625
 21
133.0848023514431
 31
0.0
 70
   160
  1
<>
 71
     8
 42
-1.0
 53
90.00000000000001
  3
Standard
100
AcDbAlignedDimension
 13
168.4695034176795
 23
237.833487748056
 33
0.0
 14
168.4695034176795
 24
28.33611695482978
 34
0.0
 50
-89.99999999999991
100
AcDbRotatedDimension
1001
ACAD
1000
DSTYLE
1002
{
1070
   279
1070
     1
1070
   340
1005
1CC
1070
   140
1040
8.0
1070
    40
1040
1.0
1070
   147
1040
0.0
1070
    76
1070
     0
1070
    75
1070
     0
1070
   344
1005
7A
1070
   343
1005
7A
1070
   173
1070
     1
1070
   289
1070
     2
1070
   288
1070
     1
1070
    77
1070
     1
1070
   172
1070
     1
1070
   174
1070
     0
1070
    74
1070
     0
1070
    73
1070
     0
1070
   284
1070
     8
1070
    78
1070
     8
1070
    42
1040
2.0
1070
    44
1040
0.5
1070
    43
1040
10.0
1070
   271
1070
     2
1070
    41
1040
0.6000000000000001
1002
}
  0
DIMENSION
  5
261
330
1F
100
AcDbEntity
  8
2
  6
Continuous
 62
   134
370
     9
100
AcDbDimension
  2
Dim17
 10
37.07784768913589
 20
28.33611695483014
 30
0.0
 11
37.07784768913589
 21
86.16665333944584
 31
0.0
 70
   160
  1
<>
 71
     8
 42
-1.0
 53
89.9999999999999
  3
Standard
100
AcDbAlignedDimension
 13
67.06131075799858
 23
143.9971897240619
 33
0.0
 14
166.2455601017355
 24
28.33611695482978
 34
0.0
 50
-89.99999999999991
100
AcDbRotatedDimension
1001
ACAD
1000
DSTYLE
1002
{
1070
   279
1070
     1
1070
   340
1005
1CC
1070
   140
1040
8.0
1070
    40
1040
1.0
1070
   147
1040
0.0
1070
    76
1070
     0
1070
    75
1070
     0
1070
   344
1005
7A
1070
   343
1005
7A
1070
   173
1070
     1
1070
   289
1070
     2
1070
   288
1070
     1
1070
    77
1070
     1
1070
   172
1070
     1
1070
   174
1070
     0
1070
    74
1070
     0
1070
    73
1070
     0
1070
   284
1070
     8
1070
    78
1070
     8
1070
    42
1040
2.0
1070
    44
1040
0.5
1070
    43
1040
10.0
1070
   271
1070
     2
1070
    41
1040
0.6000000000000001
1002
}
  0
DIMENSION
  5
26B
330
1F
100
AcDbEntity
  8
2
  6
Continuous
 62
   134
370
     9
100
AcDbDimension
  2
Dim18
 10
37.07784768913589
 20
143.9971897240619
 30
0.0
 11
37.07784768913589
 21
190.9153387360595
 31
0.0
 70
   160
  1
<>
 71
     8
 42
-1.0
 53
89.99999999999984
  3
Standard
100
AcDbAlignedDimension
 13
176.4422059185337
 23
237.833487748056
 33
0.0
 14
67.06131075799858
 24
143.9971897240619
 34
0.0
 50
-89.99999999999991
100
AcDbRotatedDimension
1001
ACAD
1000
DSTYLE
1002
{
1070
   279
1070
     1
1070
   340
1005
1CC
1070
   140
1040
8.0
1070
    40
1040
1.0
1070
   147
1040
0.0
1070
    76
1070
     0
1070
    75
1070
     0
1070
   344
1005
7A
1070
   343
1005
7A
1070
   173
1070
     1
1070
   289
1070
     2
1070
   288
1070
     1
1070
    77
1070
     1
1070
   172
1070
     1
1070
   174
1070
     0
1070
    74
1070
     0
1070
    73
1070
     0
1070
   284
1070
     8
1070
    78
1070
     8
1070
    42
1040
2.0
1070
    44
1040
0.5
1070
    43
1040
10.0
1070
   271
1070
     2
1070
    41
1040
0.6000000000000001
1002
}
  0
DIMENSION
  5
275
330
1F
100
AcDbEntity
  8
2
  6
Continuous
 62
   134
370
     9
100
AcDbDimension
  2
Dim19
 10
47.07784768913552
 20
194.2060156171385
 30
0.0
 11
47.07784768913552
 21
211.063292358194
 31
0.0
 70
   160
  1
<>
 71
     8
 42
-1.0
 53
89.99999999999991
  3
Standard
100
AcDbAlignedDimension
 13
146.069793756053
 23
227.9205690992491
 33
0.0
 14
84.11154374863837
 24
194.2060156171385
 34
0.0
 50
-89.99999999999991
100
AcDbRotatedDimension
1001
ACAD
1000
DSTYLE
1002
{
1070
   279
1070
     1
1070
   340
1005
1CC
1070
   140
1040
8.0
1070
    40
1040
1.0
1070
   147
1040
0.0
1070
    76
1070
     0
1070
    75
1070
     0
1070
   344
1005
7A
1070
   343
1005
7A
1070
   173
1070
     1
1070
   289
1070
     2
1070
   288
1070
     1
1070
    77
1070
     1
1070
   172
1070
     1
1070
   174
1070
     0
1070
    74
1070
     0
1070
    73
1070
     0
1070
   284
1070
     8
1070
    78
1070
     8
1070
    42
1040
2.0
1070
    44
1040
0.0
1070
    43
1040
10.0
1070
   271
1070
     2
1070
    41
1040
0.6000000000000001
1002
}
  0
DIMENSION
  5
27F
330
1F
100
AcDbEntity
  8
2
  6
Continuous
 62
   134
370
     9
100
AcDbDimension
  2
Dim20
 10
47.07784768913552
 20
149.5906016648776
 30
0.0
 11
47.07784768913552
 21
171.898308641008
 31
0.0
 70
   160
  1
<>
 71
     8
 42
-1.0
 53
89.99999999999991
  3
Standard
100
AcDbAlignedDimension
 13
84.11154374863837
 23
194.2060156171385
 33
0.0
 14
62.20108171970642
 24
149.5906016648776
 34
0.0
 50
-89.99999999999991
100
AcDbRotatedDimension
1001
ACAD
1000
DSTYLE
1002
{
1070
   279
1070
     1
1070
   340
1005
1CC
1070
   140
1040
8.0
1070
    40
1040
1.0
1070
   147
1040
0.0
1070
    76
1070
     0
1070
    75
1070
     0
1070
   344
1005
7A
1070
   343
1005
7A
1070
   173
1070
     1
1070
   289
1070
     2
1070
   288
1070
     1
1070
    77
1070
     1
1070
   172
1070
     1
1070
   174
1070
     0
1070
    74
1070
     0
1070
    73
1070
     0
1070
   284
1070
     8
1070
    78
1070
     8
1070
    42
1040
2.0
1070
    44
1040
0.0
1070
    43
1040
10.0
1070
   271
1070
     2
1070
    41
1040
0.6000000000000001
1002
}
  0
DIMENSION
  5
289
330
1F
100
AcDbEntity
  8
2
  6
Continuous
 62
   134
370
     9
100
AcDbDimension
  2
Dim21
 10
47.07784768913552
 20
66.7595095662
 30
0.0
 11
47.07784768913552
 21
96.91490041936851
 31
0.0
 70
   160
  1
<>
 71
     8
 42
-1.0
 53
89.99999999999991
  3
Standard
100
AcDbAlignedDimension
 13
63.21093341531669
 23
127.0702912725374
 33
0.0
 14
96.53576902736968
 24
66.7595095662
 34
0.0
 50
-89.99999999999991
100
AcDbRotatedDimension
1001
ACAD
1000
DSTYLE
1002
{
1070
   279
1070
     1
1070
   340
1005
1CC
1070
   140
1040
8.0
1070
    40
1040
1.0
1070
   147
1040
0.0
1070
    76
1070
     0
1070
    75
1070
     0
1070
   344
1005
7A
1070
   343
1005
7A
1070
   173
1070
     1
1070
   289
1070
     2
1070
   288
1070
     1
1070
    77
1070
     1
1070
   172
1070
     1
1070
   174
1070
     0
1070
    74
1070
     0
1070
    73
1070
     0
1070
   284
1070
     8
1070
    78
1070
     8
1070
    42
1040
2.0
1070
    44
1040
0.0
1070
    43
1040
10.0
1070
   271
1070
     2
1070
    41
1040
0.6000000000000001
1002
}
  0
DIMENSION
  5
293
330
1F
100
AcDbEntity
  8
2
  6
Continuous
 62
   134
370
     9
100
AcDbDimension
  2
Dim22
 10
47.07784768913552
 20
37.76367897751552
 30
0.0
 11
47.07784768913552
 21
52.26159427185776
 31
0.0
 70
   160
  1
<>
 71
     8
 42
-1.0
 53
89.99999999999991
  3
Standard
100
AcDbAlignedDimension
 13
96.53576902736968
 23
66.7595095662
 33
0.0
 14
151.4830997847675
 24
37.76367897751516
 34
0.0
 50
-89.99999999999991
100
AcDbRotatedDimension
1001
ACAD
1000
DSTYLE
1002
{
1070
   279
1070
     1
1070
   340
1005
1CC
1070
   140
1040
8.0
1070
    40
1040
1.0
1070
   147
1040
0.0
1070
    76
1070
     0
1070
    75
1070
     0
1070
   344
1005
7A
1070
   343
1005
7A
1070
   173
1070
     1
1070
   289
1070
     2
1070
   288
1070
     1
1070
    77
1070
     1
1070
   172
1070
     1
1070
   174
1070
     0
1070
    74
1070
     0
1070
    73
1070
     0
1070
   284
1070
     8
1070
    78
1070
     8
1070
    42
1040
2.0
1070
    44
1040
0.0
1070
    43
1040
10.0
1070
   271
1070
     2
1070
    41
1040
0.6000000000000001
1002
}
  0
DIMENSION
  5
29D
330
1F
100
AcDbEntity
  8
2
  6
Continuous
 62
   134
370
     9
100
AcDbDimension
  2
Dim23
 10
47.07784768913516
 20
127.0702912725374
 30
0.0
 11
47.07784768913516
 21
137.9444321165836
 31
0.0
 70
   160
  1
<>
 71
     8
 42
-1.0
 53
89.99999999999991
  3
Standard
100
AcDbAlignedDimension
 13
62.20108171970642
 23
149.5906016648776
 33
0.0
 14
63.21093341531669
 24
127.0702912725374
 34
0.0
 50
-89.99999999999991
100
AcDbRotatedDimension
1001
ACAD
1000
DSTYLE
1002
{
1070
   279
1070
     1
1070
   340
1005
1CC
1070
   140
1040
8.0
1070
    40
1040
1.0
1070
   147
1040
0.0
1070
    76
1070
     0
1070
    75
1070
     0
1070
   344
1005
7A
1070
   343
1005
7A
1070
   173
1070
     1
1070
   289
1070
     2
1070
   288
1070
     1
1070
    77
1070
     1
1070
   172
1070
     1
1070
   174
1070
     0
1070
    74
1070
     0
1070
    73
1070
     0
1070
   284
1070
     8
1070
    78
1070
     8
1070
    42
1040
2.0
1070
    44
1040
0.0
1070
    43
1040
10.0
1070
   271
1070
     2
1070
    41
1040
0.6000000000000001
1002
}
  0
DIMENSION
  5
2A4
330
1F
100
AcDbEntity
  8
2
  6
Continuous
 62
   134
370
    25
100
AcDbDimension
  2
Dim24
 10
281.2923457738754
 20
139.7321444449408
 30
0.0
 11
326.6867213053492
 21
125.1856441748583
 31
0.0
 70
   164
  1
<>
 71
     5
 42
-1.0
  3
Standard
100
AcDbRadialDimension
 15
369.0091240699014
 25
103.2524678377416
 35
0.0
 40
0.0
1001
ACAD
1000
DSTYLE
1002
{
1070
   340
1005
1CC
1070
   140
1040
8.0
1070
    40
1040
1.0
1070
   147
1040
0.0
1070
    76
1070
     1
1070
    75
1070
     1
1070
   344
1005
7F
1070
   343
1005
7F
1070
   173
1070
     1
1070
   289
1070
     2
1070
   288
1070
     1
1070
    77
1070
     1
1070
   172
1070
     1
1070
   174
1070
     0
1070
    74
1070
     0
1070
    73
1070
     0
1070
   284
1070
     8
1070
    78
1070
     8
1070
    42
1040
0.0
1070
    44
1040
0.0
1070
    43
1040
10.0
1070
   271
1070
     2
1070
    41
1040
8.0
1002
}
  0
DIMENSION
  5
2AB
330
1F
100
AcDbEntity
  8
2
  6
Continuous
 62
   134
370
    25
100
AcDbDimension
  2
Dim25
 10
314.5147751538011
 20
146.8599596150118
 30
0.0
 11
339.4995421106962
 21
165.6419036067726
 31
0.0
 70
   164
  1
<>
 71
     5
 42
-1.0
  3
Standard
100
AcDbRadialDimension
 15
368.4335512040664
 25
177.4665861726924
 35
0.0
 40
0.0
1001
ACAD
1000
DSTYLE
1002
{
1070
   340
1005
1CC
1070
   140
1040
8.0
1070
    40
1040
1.0
1070
   147
1040
0.0
1070
    76
1070
     1
1070
    75
1070
     1
1070
   344
1005
7F
1070
   343
1005
7F
1070
   173
1070
     1
1070
   289
1070
     2
1070
   288
1070
     1
1070
    77
1070
     1
1070
   172
1070
     1
1070
   174
1070
     0
1070
    74
1070
     0
1070
    73
1070
     0
1070
   284
1070
     8
1070
    78
1070
     8
1070
    42
1040
0.0
1070
    44
1040
0.0
1070
    43
1040
10.0
1070
   271
1070
     2
1070
    41
1040
8.0
1002
}
  0
DIMENSION
  5
2B2
330
1F
100
AcDbEntity
  8
2
  6
Continuous
 62
   134
370
    25
100
AcDbDimension
  2
Dim26
 10
249.5778476891341
 20
143.9971897240619
 30
0.0
 11
352.4062311542373
 21
133.7094877401054
 31
0.0
 70
   164
  1
<>
 71
     5
 42
-1.0
  3
Standard
100
AcDbRadialDimension
 15
376.3416430295518
 25
136.2550846554976
 35
0.0
 40
0.0
1001
ACAD
1000
DSTYLE
1002
{
1070
   340
1005
1CC
1070
   140
1040
8.0
1070
    40
1040
1.0
1070
   147
1040
0.0
1070
    76
1070
     1
1070
    75
1070
     1
1070
   344
1005
7F
1070
   343
1005
7F
1070
   173
1070
     1
1070
   289
1070
     2
1070
   288
1070
     1
1070
    77
1070
     1
1070
   172
1070
     1
1070
   174
1070
     0
1070
    74
1070
     0
1070
    73
1070
     0
1070
   284
1070
     8
1070
    78
1070
     8
1070
    42
1040
0.0
1070
    44
1040
0.0
1070
    43
1040
10.0
1070
   271
1070
     2
1070
    41
1040
8.0
1002
}
  0
DIMENSION
  5
2B9
330
1F
100
AcDbEntity
  8
2
  6
Continuous
 62
   134
370
    25
100
AcDbDimension
  2
Dim27
 10
241.8808259033096
 20
60.9497773530864
 30
0.0
 11
301.9228980197611
 21
169.4823214319118
 31
0.0
 70
   164
  1
<>
 71
     5
 42
-1.0
  3
Standard
100
AcDbRadialDimension
 15
331.2328103407344
 25
210.83797861354
 35
0.0
 40
0.0
1001
ACAD
1000
DSTYLE
1002
{
1070
   340
1005
1CC
1070
   140
1040
8.0
1070
    40
1040
1.0
1070
   147
1040
0.0
1070
    76
1070
     1
1070
    75
1070
     1
1070
   344
1005
7F
1070
   343
1005
7F
1070
   173
1070
     1
1070
   289
1070
     2
1070
   288
1070
     1
1070
    77
1070
     1
1070
   172
1070
     1
1070
   174
1070
     0
1070
    74
1070
     0
1070
    73
1070
     0
1070
   284
1070
     8
1070
    78
1070
     8
1070
    42
1040
0.0
1070
    44
1040
0.0
1070
    43
1040
10.0
1070
   271
1070
     2
1070
    41
1040
8.0
1002
}
  0
DIMENSION
  5
2C0
330
1F
100
AcDbEntity
  8
2
  6
Continuous
 62
   134
370
    25
100
AcDbDimension
  2
Dim28
 10
246.39652323232
 20
181.5953928753756
 30
0.0
 11
290.8181494715787
 21
107.3187185590305
 31
0.0
 70
   164
  1
<>
 71
     5
 42
-1.0
  3
Standard
100
AcDbRadialDimension
 15
317.1181877183306
 25
49.88094350732717
 35
0.0
 40
0.0
1001
ACAD
1000
DSTYLE
1002
{
1070
   340
1005
1CC
1070
   140
1040
8.0
1070
    40
1040
1.0
1070
   147
1040
0.0
1070
    76
1070
     1
1070
    75
1070
     1
1070
   344
1005
7F
1070
   343
1005
7F
1070
   173
1070
     1
1070
   289
1070
     2
1070
   288
1070
     1
1070
    77
1070
     1
1070
   172
1070
     1
1070
   174
1070
     0
1070
    74
1070
     0
1070
    73
1070
     0
1070
   284
1070
     8
1070
    78
1070
     8
1070
    42
1040
0.0
1070
    44
1040
0.0
1070
    43
1040
10.0
1070
   271
1070
     2
1070
    41
1040
8.0
1002
}
  0
DIMENSION
  5
2C7
330
1F
100
AcDbEntity
  8
2
  6
Continuous
 62
   134
370
    25
100
AcDbDimension
  2
Dim29
 10
225.8278476891355
 20
8.087643842750913
 30
0.0
 11
253.7477581683449
 21
206.5714334523616
 31
0.0
 70
   164
  1
<>
 71
     5
 42
-1.0
  3
Standard
100
AcDbRadialDimension
 15
262.3640096995579
 25
234.9097363675068
 35
0.0
 40
0.0
1001
ACAD
1000
DSTYLE
1002
{
1070
   340
1005
1CC
1070
   140
1040
8.0
1070
    40
1040
1.0
1070
   147
1040
0.0
1070
    76
1070
     1
1070
    75
1070
     1
1070
   344
1005
7F
1070
   343
1005
7F
1070
   173
1070
     1
1070
   289
1070
     2
1070
   288
1070
     1
1070
    77
1070
     1
1070
   172
1070
     1
1070
   174
1070
     0
1070
    74
1070
     0
1070
    73
1070
     0
1070
   284
1070
     8
1070
    78
1070
     8
1070
    42
1040
0.0
1070
    44
1040
0.0
1070
    43
1040
10.0
1070
   271
1070
     2
1070
    41
1040
8.0
1002
}
  0
DIMENSION
  5
2CE
330
1F
100
AcDbEntity
  8
2
  6
Continuous
 62
   134
370
    25
100
AcDbDimension
  2
Dim30
 10
219.2579332661844
 20
277.3228546334835
 30
0.0
 11
255.8024894586167
 21
59.4795608914062
 31
0.0
 70
   164
  1
<>
 71
     5
 42
-1.0
  3
Standard
100
AcDbRadialDimension
 15
255.9998718920884
 25
31.04855644950658
 35
0.0
 40
0.0
1001
ACAD
1000
DSTYLE
1002
{
1070
   340
1005
1CC
1070
   140
1040
8.0
1070
    40
1040
1.0
1070
   147
1040
0.0
1070
    76
1070
     1
1070
    75
1070
     1
1070
   344
1005
7F
1070
   343
1005
7F
1070
   173
1070
     1
1070
   289
1070
     2
1070
   288
1070
     1
1070
    77
1070
     1
1070
   172
1070
     1
1070
   174
1070
     0
1070
    74
1070
     0
1070
    73
1070
     0
1070
   284
1070
     8
1070
    78
1070
     8
1070
    42
1040
0.0
1070
    44
1040
0.0
1070
    43
1040
10.0
1070
   271
1070
     2
1070
    41
1040
8.0
1002
}
  0
DIMENSION
  5
2D8
330
1F
100
AcDbEntity
  8
2
  6
Continuous
 62
   134
370
    25
100
AcDbDimension
  2
Dim31
 10
225.8278476891414
 20
247.833487748056
 30
0.0
 11
259.2068746556797
 21
247.833487748056
 31
0.0
 70
   160
  1
<>
 71
     8
 42
-1.0
 53
359.9999999999997
  3
Standard
100
AcDbAlignedDimension
 13
292.5859016222188
 23
232.9205690992472
 33
0.0
 14
225.8278476891414
 24
242.8334877480542
 34
0.0
 50
179.9999999999998
100
AcDbRotatedDimension
1001
ACAD
1000
DSTYLE
1002
{
1070
   279
1070
     1
1070
   340
1005
1CC
1070
   140
1040
8.0
1070
    40
1040
1.0
1070
   147
1040
0.0
1070
    76
1070
     0
1070
    75
1070
     0
1070
   344
1005
7A
1070
   343
1005
7A
1070
   173
1070
     1
1070
   289
1070
     2
1070
   288
1070
     1
1070
    77
1070
     1
1070
   172
1070
     1
1070
   174
1070
     0
1070
    74
1070
     0
1070
    73
1070
     0
1070
   284
1070
     8
1070
    78
1070
     8
1070
    42
1040
2.0
1070
    44
1040
0.0
1070
    43
1040
10.0
1070
   271
1070
     2
1070
    41
1040
0.6000000000000001
1002
}
  0
DIMENSION
  5
2E2
330
1F
100
AcDbEntity
  8
2
  6
Continuous
 62
   134
370
    25
100
AcDbDimension
  2
Dim32
 10
292.5859016222188
 20
247.833487748056
 30
0.0
 11
323.5650266259261
 21
247.833487748056
 31
0.0
 70
   160
  1
<>
 71
     8
 42
-1.0
 53
359.9999999999997
  3
Standard
100
AcDbAlignedDimension
 13
354.5441516296335
 23
199.2060156171363
 33
0.0
 14
292.5859016222188
 24
232.9205690992472
 34
0.0
 50
179.9999999999998
100
AcDbRotatedDimension
1001
ACAD
1000
DSTYLE
1002
{
1070
   279
1070
     1
1070
   340
1005
1CC
1070
   140
1040
8.0
1070
    40
1040
1.0
1070
   147
1040
0.0
1070
    76
1070
     0
1070
    75
1070
     0
1070
   344
1005
7A
1070
   343
1005
7A
1070
   173
1070
     1
1070
   289
1070
     2
1070
   288
1070
     1
1070
    77
1070
     1
1070
   172
1070
     1
1070
   174
1070
     0
1070
    74
1070
     0
1070
    73
1070
     0
1070
   284
1070
     8
1070
    78
1070
     8
1070
    42
1040
2.0
1070
    44
1040
0.0
1070
    43
1040
10.0
1070
   271
1070
     2
1070
    41
1040
0.6000000000000001
1002
}
  0
DIMENSION
  5
2EC
330
1F
100
AcDbEntity
  8
2
  6
Continuous
 62
   134
370
    25
100
AcDbDimension
  2
Dim33
 10
354.5441516296335
 20
247.833487748056
 30
0.0
 11
365.4993826440994
 21
247.833487748056
 31
0.0
 70
   160
  1
<>
 71
     8
 42
-1.0
 53
359.9999999999997
  3
Standard
100
AcDbAlignedDimension
 13
376.4546136585654
 23
154.5906016648762
 33
0.0
 14
354.5441516296335
 24
199.2060156171363
 34
0.0
 50
179.9999999999998
100
AcDbRotatedDimension
1001
ACAD
1000
DSTYLE
1002
{
1070
   279
1070
     1
1070
   340
1005
1CC
1070
   140
1040
8.0
1070
    40
1040
1.0
1070
   147
1040
0.0
1070
    76
1070
     0
1070
    75
1070
     0
1070
   344
1005
7A
1070
   343
1005
7A
1070
   173
1070
     1
1070
   289
1070
     2
1070
   288
1070
     1
1070
    77
1070
     1
1070
   172
1070
     1
1070
   174
1070
     0
1070
    74
1070
     0
1070
    73
1070
     0
1070
   284
1070
     8
1070
    78
1070
     8
1070
    42
1040
2.0
1070
    44
1040
0.0
1070
    43
1040
10.0
1070
   271
1070
     2
1070
    41
1040
0.6000000000000001
1002
}
  0
DIMENSION
  5
2F6
330
1F
100
AcDbEntity
  8
2
  6
Continuous
 62
   134
370
    25
100
AcDbDimension
  2
Dim34
 10
376.5778476891341
 20
247.833487748056
 30
0.0
 11
386.9965773891305
 21
247.8334877480559
 31
0.0
 70
   160
  1
0.12
 71
     8
 42
-1.0
 53
359.9999999999997
  3
Standard
100
AcDbAlignedDimension
 13
376.4546136585654
 23
149.5906016648776
 33
0.0
 14
376.5778476891341
 24
143.9971897240619
 34
0.0
100
AcDbRotatedDimension
1001
ACAD
1000
DSTYLE
1002
{
1070
   279
1070
     1
1070
   340
1005
1CC
1070
   140
1040
8.0
1070
    40
1040
1.0
1070
   147
1040
0.0
1070
    76
1070
     0
1070
    75
1070
     0
1070
   344
1005
7A
1070
   343
1005
7A
1070
   173
1070
     1
1070
   289
1070
     2
1070
   288
1070
     1
1070
    77
1070
     1
1070
   172
1070
     1
1070
   174
1070
     0
1070
    74
1070
     0
1070
    73
1070
     0
1070
   284
1070
     8
1070
    78
1070
     8
1070
    42
1040
2.0
1070
    44
1040
0.0
1070
    43
1040
10.0
1070
   271
1070
     2
1070
    41
1040
0.6000000000000001
1002
}
  0
DIMENSION
  5
300
330
1F
100
AcDbEntity
  8
2
  6
Continuous
 62
   134
370
    25
100
AcDbDimension
  2
Dim35
 10
62.46277091787451
 20
272.633487748056
 30
0.0
 11
62.46277091787451
 21
274.633487748056
 31
0.0
 70
   160
  1
<>
 71
     8
 42
-1.0
 53
89.99999999999991
  3
Standard
100
AcDbAlignedDimension
 13
54.07784768913516
 23
276.633487748056
 33
0.0
 14
57.07784768913516
 24
272.633487748056
 34
0.0
 50
-89.99999999999991
100
AcDbRotatedDimension
1001
ACAD
1000
DSTYLE
1002
{
1070
   279
1070
     1
1070
   340
1005
1CC
1070
   140
1040
8.0
1070
    40
1040
1.0
1070
   147
1040
0.0
1070
    76
1070
     0
1070
    75
1070
     0
1070
   344
1005
7A
1070
   343
1005
7A
1070
   173
1070
     1
1070
   289
1070
     2
1070
   288
1070
     1
1070
    77
1070
     1
1070
   172
1070
     1
1070
   174
1070
     0
1070
    74
1070
     0
1070
    73
1070
     0
1070
   284
1070
     8
1070
    78
1070
     8
1070
    42
1040
2.0
1070
    44
1040
0.5
1070
    43
1040
10.0
1070
   271
1070
     2
1070
    41
1040
0.6000000000000001
1002
}
  0
DIMENSION
  5
30A
330
1F
100
AcDbEntity
  8
2
  6
Continuous
 62
   134
370
    25
100
AcDbDimension
  2
Dim36
 10
54.07784768913516
 20
282.7611451460307
 30
0.0
 11
55.57784768913516
 21
282.7611451460307
 31
0.0
 70
   160
  1
<>
 71
     8
 42
-1.0
 53
359.9999999999997
  3
Standard
100
AcDbAlignedDimension
 13
57.07784768913516
 23
276.633487748056
 33
0.0
 14
54.07784768913516
 24
276.633487748056
 34
0.0
 50
179.9999999999998
100
AcDbRotatedDimension
1001
ACAD
1000
DSTYLE
1002
{
1070
   279
1070
     1
1070
   340
1005
1CC
1070
   140
1040
8.0
1070
    40
1040
1.0
1070
   147
1040
0.0
1070
    76
1070
     0
1070
    75
1070
     0
1070
   344
1005
7A
1070
   343
1005
7A
1070
   173
1070
     1
1070
   289
1070
     2
1070
   288
1070
     1
1070
    77
1070
     1
1070
   172
1070
     1
1070
   174
1070
     0
1070
    74
1070
     0
1070
    73
1070
     0
1070
   284
1070
     8
1070
    78
1070
     8
1070
    42
1040
2.0
1070
    44
1040
0.5
1070
    43
1040
10.0
1070
   271
1070
     2
1070
    41
1040
0.6000000000000001
1002
}
  0
DIMENSION
  5
314
330
1F
100
AcDbEntity
  8
2
  6
Continuous
 62
   134
370
     9
100
AcDbDimension
  2
Dim37
 10
67.0778476891348
 20
284.6392256760024
 30
0.0
 11
221.8278476891334
 21
284.6392256760024
 31
0.0
 70
   160
  1
<>
 71
     8
 42
-1.0
  3
Standard
100
AcDbAlignedDimension
 13
376.5778476891312
 23
170.1578492185439
 33
0.0
 14
67.0778476891348
 24
178.604485025823
 34
0.0
 50
179.9999999999998
100
AcDbRotatedDimension
1001
ACAD
1000
DSTYLE
1002
{
1070
   279
1070
     1
1070
   340
1005
1CC
1070
   140
1040
8.0
1070
    40
1040
1.0
1070
   147
1040
0.0
1070
    76
1070
     0
1070
    75
1070
     0
1070
   344
1005
7A
1070
   343
1005
7A
1070
   173
1070
     1
1070
   289
1070
     2
1070
   288
1070
     1
1070
    77
1070
     1
1070
   172
1070
     1
1070
   174
1070
     0
1070
    74
1070
     0
1070
    73
1070
     0
1070
   284
1070
     8
1070
    78
1070
     8
1070
    42
1040
2.0
1070
    44
1040
0.5
1070
    43
1040
10.0
1070
   271
1070
     2
1070
    41
1040
0.6000000000000001
1002
}
  0
DIMENSION
  5
31E
330
1F
100
AcDbEntity
  8
2
  6
Continuous
 62
   134
370
    25
100
AcDbDimension
  2
Dim38
 10
287.1725955935035
 20
18.33611695482941
 30
0.0
 11
254.5002216413035
 21
18.33611695482941
 31
0.0
 70
   160
  1
<>
 71
     8
 42
-1.0
  3
Standard
100
AcDbAlignedDimension
 13
221.8278476891035
 23
28.33611695482941
 33
0.0
 14
287.1725955935035
 24
32.76367897751334
 34
0.0
100
AcDbRotatedDimension
1001
ACAD
1000
DSTYLE
1002
{
1070
   279
1070
     1
1070
   340
1005
1CC
1070
   140
1040
8.0
1070
    40
1040
1.0
1070
   147
1040
0.0
1070
    76
1070
     0
1070
    75
1070
     0
1070
   344
1005
7A
1070
   343
1005
7A
1070
   173
1070
     1
1070
   289
1070
     2
1070
   288
1070
     1
1070
    77
1070
     1
1070
   172
1070
     1
1070
   174
1070
     0
1070
    74
1070
     0
1070
    73
1070
     0
1070
   284
1070
     8
1070
    78
1070
     8
1070
    42
1040
2.0
1070
    44
1040
0.0
1070
    43
1040
10.0
1070
   271
1070
     2
1070
    41
1040
0.6000000000000001
1002
}
  0
DIMENSION
  5
328
330
1F
100
AcDbEntity
  8
2
  6
Continuous
 62
   134
370
    25
100
AcDbDimension
  2
Dim39
 10
156.4830997847661
 20
18.33611695482941
 30
0.0
 11
189.1554737369661
 21
18.33611695482941
 31
0.0
 70
   160
  1
<>
 71
     8
 42
-1.0
  3
Standard
100
AcDbAlignedDimension
 13
221.8278476891661
 23
28.33611695482941
 33
0.0
 14
156.4830997847661
 24
32.76367897751334
 34
0.0
 50
179.9999999999998
100
AcDbRotatedDimension
1001
ACAD
1000
DSTYLE
1002
{
1070
   279
1070
     1
1070
   340
1005
1CC
1070
   140
1040
8.0
1070
    40
1040
1.0
1070
   147
1040
0.0
1070
    76
1070
     0
1070
    75
1070
     0
1070
   344
1005
7A
1070
   343
1005
7A
1070
   173
1070
     1
1070
   289
1070
     2
1070
   288
1070
     1
1070
    77
1070
     1
1070
   172
1070
     1
1070
   174
1070
     0
1070
    74
1070
     0
1070
    73
1070
     0
1070
   284
1070
     8
1070
    78
1070
     8
1070
    42
1040
2.0
1070
    44
1040
0.0
1070
    43
1040
10.0
1070
   271
1070
     2
1070
    41
1040
0.6000000000000001
1002
}
  0
DIMENSION
  5
332
330
1F
100
AcDbEntity
  8
2
  6
Continuous
 62
   134
370
    25
100
AcDbDimension
  2
Dim40
 10
342.119926350901
 20
18.33611695482941
 30
0.0
 11
314.6462609722025
 21
18.33611695482941
 31
0.0
 70
   160
  1
<>
 71
     8
 42
-1.0
  3
Standard
100
AcDbAlignedDimension
 13
287.1725955935035
 23
32.76367897751334
 33
0.0
 14
342.1199263509014
 24
61.75950956619818
 34
0.0
100
AcDbRotatedDimension
1001
ACAD
1000
DSTYLE
1002
{
1070
   279
1070
     1
1070
   340
1005
1CC
1070
   140
1040
8.0
1070
    40
1040
1.0
1070
   147
1040
0.0
1070
    76
1070
     0
1070
    75
1070
     0
1070
   344
1005
7A
1070
   343
1005
7A
1070
   173
1070
     1
1070
   289
1070
     2
1070
   288
1070
     1
1070
    77
1070
     1
1070
   172
1070
     1
1070
   174
1070
     0
1070
    74
1070
     0
1070
    73
1070
     0
1070
   284
1070
     8
1070
    78
1070
     8
1070
    42
1040
2.0
1070
    44
1040
0.0
1070
    43
1040
10.0
1070
   271
1070
     2
1070
    41
1040
0.6000000000000001
1002
}
  0
DIMENSION
  5
33C
330
1F
100
AcDbEntity
  8
2
  6
Continuous
 62
   134
370
    25
100
AcDbDimension
  2
Dim41
 10
375.444761962954
 20
18.33611695482941
 30
0.0
 11
358.7823441569275
 21
18.33611695482941
 31
0.0
 70
   160
  1
<>
 71
     8
 42
-1.0
  3
Standard
100
AcDbAlignedDimension
 13
342.1199263509014
 23
61.75950956619818
 33
0.0
 14
375.4447619629544
 24
122.0702912725355
 34
0.0
100
AcDbRotatedDimension
1001
ACAD
1000
DSTYLE
1002
{
1070
   279
1070
     1
1070
   340
1005
1CC
1070
   140
1040
8.0
1070
    40
1040
1.0
1070
   147
1040
0.0
1070
    76
1070
     0
1070
    75
1070
     0
1070
   344
1005
7A
1070
   343
1005
7A
1070
   173
1070
     1
1070
   289
1070
     2
1070
   288
1070
     1
1070
    77
1070
     1
1070
   172
1070
     1
1070
   174
1070
     0
1070
    74
1070
     0
1070
    73
1070
     0
1070
   284
1070
     8
1070
    78
1070
     8
1070
    42
1040
2.0
1070
    44
1040
0.0
1070
    43
1040
10.0
1070
   271
1070
     2
1070
    41
1040
0.6000000000000001
1002
}
  0
DIMENSION
  5
346
330
1F
100
AcDbEntity
  8
2
  6
Continuous
 62
   134
370
    25
100
AcDbDimension
  2
Dim42
 10
376.4546136585683
 20
18.33611695482941
 30
0.0
 11
385.1332308825288
 21
18.33611695482941
 31
0.0
 70
   160
  1
<>
 71
     8
 42
-1.0
  3
Standard
100
AcDbAlignedDimension
 13
375.4447619629544
 23
122.0702912725355
 33
0.0
 14
376.454613658569
 24
149.5906016646513
 34
0.0
100
AcDbRotatedDimension
1001
ACAD
1000
DSTYLE
1002
{
1070
   279
1070
     1
1070
   340
1005
1CC
1070
   140
1040
8.0
1070
    40
1040
1.0
1070
   147
1040
0.0
1070
    76
1070
     0
1070
    75
1070
     0
1070
   344
1005
7A
1070
   343
1005
7A
1070
   173
1070
     1
1070
   289
1070
     2
1070
   288
1070
     1
1070
    77
1070
     1
1070
   172
1070
     1
1070
   174
1070
     0
1070
    74
1070
     0
1070
    73
1070
     0
1070
   284
1070
     8
1070
    78
1070
     8
1070
    42
1040
2.0
1070
    44
1040
0.0
1070
    43
1040
10.0
1070
   271
1070
     2
1070
    41
1040
0.6000000000000001
1002
}
  0
DIMENSION
  5
350
330
1F
100
AcDbEntity
  8
2
  6
Continuous
 62
   134
370
    25
100
AcDbDimension
  2
Dim43
 10
101.5357690273679
 20
18.33611695482941
 30
0.0
 11
129.0094344060672
 21
18.33611695482941
 31
0.0
 70
   160
  1
<>
 71
     8
 42
-1.0
  3
Standard
100
AcDbAlignedDimension
 13
156.4830997847661
 23
32.76367897751334
 33
0.0
 14
101.5357690273682
 24
61.75950956619818
 34
0.0
 50
179.9999999999998
100
AcDbRotatedDimension
1001
ACAD
1000
DSTYLE
1002
{
1070
   279
1070
     1
1070
   340
1005
1CC
1070
   140
1040
8.0
1070
    40
1040
1.0
1070
   147
1040
0.0
1070
    76
1070
     0
1070
    75
1070
     0
1070
   344
1005
7A
1070
   343
1005
7A
1070
   173
1070
     1
1070
   289
1070
     2
1070
   288
1070
     1
1070
    77
1070
     1
1070
   172
1070
     1
1070
   174
1070
     0
1070
    74
1070
     0
1070
    73
1070
     0
1070
   284
1070
     8
1070
    78
1070
     8
1070
    42
1040
2.0
1070
    44
1040
0.0
1070
    43
1040
10.0
1070
   271
1070
     2
1070
    41
1040
0.6000000000000001
1002
}
  0
DIMENSION
  5
35A
330
1F
100
AcDbEntity
  8
2
  6
Continuous
 62
   134
370
    25
100
AcDbDimension
  2
Dim44
 10
68.2109334153145
 20
18.33611695482941
 30
0.0
 11
84.87335122134101
 21
18.33611695482941
 31
0.0
 70
   160
  1
<>
 71
     8
 42
-1.0
  3
Standard
100
AcDbAlignedDimension
 13
101.5357690273682
 23
61.75950956619818
 33
0.0
 14
68.21093341531524
 24
122.0702912725355
 34
0.0
 50
179.9999999999998
100
AcDbRotatedDimension
1001
ACAD
1000
DSTYLE
1002
{
1070
   279
1070
     1
1070
   340
1005
1CC
1070
   140
1040
8.0
1070
    40
1040
1.0
1070
   147
1040
0.0
1070
    76
1070
     0
1070
    75
1070
     0
1070
   344
1005
7A
1070
   343
1005
7A
1070
   173
1070
     1
1070
   289
1070
     2
1070
   288
1070
     1
1070
    77
1070
     1
1070
   172
1070
     1
1070
   174
1070
     0
1070
    74
1070
     0
1070
    73
1070
     0
1070
   284
1070
     8
1070
    78
1070
     8
1070
    42
1040
2.0
1070
    44
1040
0.0
1070
    43
1040
10.0
1070
   271
1070
     2
1070
    41
1040
0.6000000000000001
1002
}
  0
DIMENSION
  5
364
330
1F
100
AcDbEntity
  8
2
  6
Continuous
 62
   134
370
    25
100
AcDbDimension
  2
Dim45
 10
67.20108171969987
 20
18.33611695482941
 30
0.0
 11
58.47885302023569
 21
18.33611695482941
 31
0.0
 70
   160
  1
<>
 71
     8
 42
-1.0
  3
Standard
100
AcDbAlignedDimension
 13
68.21093341531524
 23
122.0702912725355
 33
0.0
 14
67.2010817197006
 24
149.5906016646513
 34
0.0
 50
179.9999999999998
100
AcDbRotatedDimension
1001
ACAD
1000
DSTYLE
1002
{
1070
   279
1070
     1
1070
   340
1005
1CC
1070
   140
1040
8.0
1070
    40
1040
1.0
1070
   147
1040
0.0
1070
    76
1070
     0
1070
    75
1070
     0
1070
   344
1005
7A
1070
   343
1005
7A
1070
   173
1070
     1
1070
   289
1070
     2
1070
   288
1070
     1
1070
    77
1070
     1
1070
   172
1070
     1
1070
   174
1070
     0
1070
    74
1070
     0
1070
    73
1070
     0
1070
   284
1070
     8
1070
    78
1070
     8
1070
    42
1040
2.0
1070
    44
1040
0.0
1070
    43
1040
10.0
1070
   271
1070
     2
1070
    41
1040
0.6000000000000001
1002
}
  0
DIMENSION
  5
36E
330
1F
100
AcDbEntity
  8
2
  6
Continuous
 62
   134
370
     9
100
AcDbDimension
  2
Dim46
 10
47.07784768913552
 20
227.9205690992494
 30
0.0
 11
47.07784768913554
 21
246.6886699640709
 31
0.0
 70
   160
  1
<>
 71
     8
 42
-1.0
 53
89.99999999999991
  3
Standard
100
AcDbAlignedDimension
 13
151.0697937560508
 23
237.833487748056
 33
0.0
 14
146.069793756053
 24
227.9205690992491
 34
0.0
 50
-89.99999999999991
100
AcDbRotatedDimension
1001
ACAD
1000
DSTYLE
1002
{
1070
   279
1070
     1
1070
   340
1005
1CC
1070
   140
1040
8.0
1070
    40
1040
1.0
1070
   147
1040
0.0
1070
    76
1070
     0
1070
    75
1070
     0
1070
   344
1005
7A
1070
   343
1005
7A
1070
   173
1070
     1
1070
   289
1070
     2
1070
   288
1070
     1
1070
    77
1070
     1
1070
   172
1070
     1
1070
   174
1070
     0
1070
    74
1070
     0
1070
    73
1070
     0
1070
   284
1070
     8
1070
    78
1070
     8
1070
    42
1040
2.0
1070
    44
1040
0.0
1070
    43
1040
10.0
1070
   271
1070
     2
1070
    41
1040
0.6000000000000001
1002
}
  0
DIMENSION
  5
378
330
1F
100
AcDbEntity
  8
2
  6
Continuous
 62
   134
370
     9
100
AcDbDimension
  2
Dim47
 10
47.07784768913552
 20
28.33611695482978
 30
0.0
 11
47.07784768913551
 21
18.33611695482941
 31
0.0
 70
   160
  1
<>
 71
     8
 42
-1.0
 53
89.99999999999991
  3
Standard
100
AcDbAlignedDimension
 13
151.4830997847675
 23
37.76367897751516
 33
0.0
 14
221.8278476891661
 24
28.33611695482941
 34
0.0
 50
-89.99999999999991
100
AcDbRotatedDimension
1001
ACAD
1000
DSTYLE
1002
{
1070
   279
1070
     1
1070
   340
1005
1CC
1070
   140
1040
8.0
1070
    40
1040
1.0
1070
   147
1040
0.0
1070
    76
1070
     0
1070
    75
1070
     0
1070
   344
1005
7A
1070
   343
1005
7A
1070
   173
1070
     1
1070
   289
1070
     2
1070
   288
1070
     1
1070
    77
1070
     1
1070
   172
1070
     1
1070
   174
1070
     0
1070
    74
1070
     0
1070
    73
1070
     0
1070
   284
1070
     8
1070
    78
1070
     8
1070
    42
1040
2.0
1070
    44
1040
0.0
1070
    43
1040
10.0
1070
   271
1070
     2
1070
    41
1040
0.6000000000000001
1002
}
  0
DIMENSION
  5
382
330
1F
100
AcDbEntity
  8
2
  6
Continuous
 62
   134
370
    25
100
AcDbDimension
  2
Dim48
 10
225.8278476891414
 20
247.833487748056
 30
0.0
 11
228.2163339741677
 21
247.833487748056
 31
0.0
 70
   160
  1
<>
 71
     8
 42
-1.0
  3
Standard
100
AcDbAlignedDimension
 13
221.8278476891348
 23
237.833487748056
 33
0.0
 14
225.8278476891414
 24
242.1131851759117
 34
0.0
100
AcDbRotatedDimension
1001
ACAD
1000
DSTYLE
1002
{
1070
   279
1070
     1
1070
   340
1005
1CC
1070
   140
1040
8.0
1070
    40
1040
1.0
1070
   147
1040
0.0
1070
    76
1070
     0
1070
    75
1070
     0
1070
   344
1005
7A
1070
   343
1005
7A
1070
   173
1070
     1
1070
   289
1070
     2
1070
   288
1070
     1
1070
    77
1070
     1
1070
   172
1070
     1
1070
   174
1070
     0
1070
    74
1070
     0
1070
    73
1070
     0
1070
   284
1070
     8
1070
    78
1070
     8
1070
    42
1040
2.0
1070
    44
1040
0.0
1070
    43
1040
10.0
1070
   271
1070
     2
1070
    41
1040
0.6000000000000001
1002
}
  0
DIMENSION
  5
38C
330
1F
100
AcDbEntity
  8
2
  6
Continuous
 62
   134
370
    25
100
AcDbDimension
  2
Dim49
 10
217.8278476891282
 20
247.833487748056
 30
0.0
 11
214.8338454949724
 21
247.833487748056
 31
0.0
 70
   160
  1
<>
 71
     8
 42
-1.0
  3
Standard
100
AcDbAlignedDimension
 13
221.8278476891348
 23
237.833487748056
 33
0.0
 14
217.8278476891282
 24
242.1131851759117
 34
0.0
 50
179.9999999999998
100
AcDbRotatedDimension
1001
ACAD
1000
DSTYLE
1002
{
1070
   279
1070
     1
1070
   340
1005
1CC
1070
   140
1040
8.0
1070
    40
1040
1.0
1070
   147
1040
0.0
1070
    76
1070
     0
1070
    75
1070
     0
1070
   344
1005
7A
1070
   343
1005
7A
1070
   173
1070
     1
1070
   289
1070
     2
1070
   288
1070
     1
1070
    77
1070
     1
1070
   172
1070
     1
1070
   174
1070
     0
1070
    74
1070
     0
1070
    73
1070
     0
1070
   284
1070
     8
1070
    78
1070
     8
1070
    42
1040
2.0
1070
    44
1040
0.0
1070
    43
1040
10.0
1070
   271
1070
     2
1070
    41
1040
0.6000000000000001
1002
}
  0
MTEXT
  5
38D
330
1F
100
AcDbEntity
  8
1
  6
Continuous
 62
     7
370
     9
100
AcDbMText
 10
230.3526198775281
 20
9.698126582274563
 30
0.0
 40
8.0
 41
229.2147148930848
 71
     4
 72
     1
  1
{\fＭＳ ゴシック;\W0.625000;『ＫＭＣ６****-３Ｎ オンボウル用穴加工図(縮尺:1/1)』}
 73
     1
 44
1.0
1001
ACAD
1000
ACAD_MTEXT_DEFINED_HEIGHT_BEGIN
1070
    46
1040
8.0
1000
ACAD_MTEXT_DEFINED_HEIGHT_END
  0
ENDSEC
  0
SECTION
  2
OBJECTS
  0
DICTIONARY
  5
C
330
0
100
AcDbDictionary
281
     1
  3
ACAD_GROUP
350
D
  3
ACAD_LAYOUT
350
1A
  3
ACAD_MATERIAL
350
43
  3
ACAD_MLEADERSTYLE
350
6B
  3
ACAD_MLINESTYLE
350
17
  3
ACAD_PLOTSETTINGS
350
19
  3
ACAD_PLOTSTYLENAME
350
E
  3
ACAD_SCALELIST
350
47
  3
ACAD_TABLESTYLE
350
69
  3
ACAD_VISUALSTYLE
350
2A
  3
AcDbVariableDictionary
350
38E
  3
DWGPROPS
350
395
  0
DICTIONARY
  5
396
330
8
100
AcDbDictionary
280
     1
281
     1
  3
ACAD_XREC_ROUNDTRIP
360
397
  0
DICTIONARY
  5
D
102
{ACAD_REACTORS
330
C
102
}
330
C
100
AcDbDictionary
281
     1
  0
DICTIONARY
  5
1A
102
{ACAD_REACTORS
330
C
102
}
330
C
100
AcDbDictionary
281
     1
  3
Layout1
350
1E
  3
Layout2
350
26
  3
Model
350
22
  0
DICTIONARY
  5
43
102
{ACAD_REACTORS
330
C
102
}
330
C
100
AcDbDictionary
281
     1
  3
ByBlock
350
45
  3
ByLayer
350
44
  3
Global
350
46
  0
DICTIONARY
  5
6B
102
{ACAD_REACTORS
330
C
102
}
330
C
100
AcDbDictionary
281
     1
  3
Standard
350
6C
  0
DICTIONARY
  5
17
102
{ACAD_REACTORS
330
C
102
}
330
C
100
AcDbDictionary
281
     1
  3
Standard
350
18
  0
DICTIONARY
  5
19
102
{ACAD_REACTORS
330
C
102
}
330
C
100
AcDbDictionary
281
     1
  0
ACDBDICTIONARYWDFLT
  5
E
102
{ACAD_REACTORS
330
C
102
}
330
C
100
AcDbDictionary
281
     1
  3
Normal
350
F
100
AcDbDictionaryWithDefault
340
F
  0
DICTIONARY
  5
47
102
{ACAD_REACTORS
330
C
102
}
330
C
100
AcDbDictionary
281
     1
  3
A0
350
48
  3
A1
350
49
  3
A2
350
4A
  3
A3
350
4B
  3
A4
350
4C
  3
A5
350
4D
  3
A6
350
4E
  3
A7
350
4F
  3
A8
350
50
  3
A9
350
51
  3
B0
350
52
  3
B1
350
53
  3
B2
350
54
  3
B3
350
55
  3
B4
350
56
  3
B5
350
57
  3
B6
350
58
  3
B7
350
59
  3
B8
350
5A
  3
B9
350
5B
  3
C0
350
5C
  3
C1
350
5D
  3
C2
350
5E
  3
C3
350
5F
  3
C4
350
60
  3
C5
350
61
  3
C6
350
62
  3
C7
350
63
  3
C8
350
64
  3
C9
350
65
  3
D0
350
66
  3
D1
350
67
  3
D2
350
68
  0
DICTIONARY
  5
69
102
{ACAD_REACTORS
330
C
102
}
330
C
100
AcDbDictionary
281
     1
  3
Standard
350
6A
  0
DICTIONARY
  5
2A
102
{ACAD_REACTORS
330
C
102
}
330
C
100
AcDbDictionary
281
     1
  3
2dWireframe
350
2F
  3
Basic
350
32
  3
Brighten
350
36
  3
ColorChange
350
3A
  3
Conceptual
350
34
  3
Dim
350
35
  3
EdgeColorOff
350
3D
  3
Facepattern
350
39
  3
Flat
350
2B
  3
FlatWithEdges
350
2C
  3
Gouraud
350
2D
  3
GouraudWithEdges
350
2E
  3
Hidden
350
31
  3
JitterOff
350
3B
  3
Linepattern
350
38
  3
OverhangOff
350
3C
  3
Realistic
350
33
  3
Shaded
350
42
  3
Shaded with edges
350
41
  3
Shades of Gray
350
3E
  3
Sketchy
350
3F
  3
Thicken
350
37
  3
Wireframe
350
30
  3
X-Ray
350
40
  0
DICTIONARY
  5
38E
102
{ACAD_REACTORS
330
C
102
}
330
C
100
AcDbDictionary
281
     1
  3
CANNOSCALE
350
398
  3
CMLEADERSTYLE
350
390
  3
CTABLESTYLE
350
38F
  3
DIMASSOC
350
391
  3
HIDETEXT
350
394
  3
MSLTSCALE
350
399
  0
XRECORD
  5
395
102
{ACAD_REACTORS
330
C
102
}
330
C
100
AcDbXrecord
280
     1
  1
DWGPROPS COOKIE
  2

  3

  4

  6

  7

  8
k.watanabe
  9

300
=
301
=
302
=
303
=
304
=
305
=
306
=
307
=
308
=
309
=
 40
0.0
 41
2460207.47724537
 42
2460207.102255394
  1

 90
        0
  0
XRECORD
  5
397
102
{ACAD_REACTORS
330
396
102
}
330
396
100
AcDbXrecord
280
     1
102
VTR_0.000_0.000_1.000_1.000_VISUALSTYLE
340
2F
102
VTR_0.000_0.000_1.000_1.000_GRIDDISPLAY
 70
     3
102
VTR_0.000_0.000_1.000_1.000_GRIDMAJOR
 70
     5
102
VTR_0.000_0.000_1.000_1.000_DEFAULTLIGHTING
280
     1
102
VTR_0.000_0.000_1.000_1.000_DEFAULTLIGHTINGTYPE
 70
     1
102
VTR_0.000_0.000_1.000_1.000_BRIGHTNESS
141
0.0
102
VTR_0.000_0.000_1.000_1.000_CONTRAST
142
0.0
  0
LAYOUT
  5
1E
102
{ACAD_REACTORS
330
1A
102
}
330
1A
100
AcDbPlotSettings
  1

  2
none_device
  4

  6

 40
0.0
 41
0.0
 42
0.0
 43
0.0
 44
0.0
 45
0.0
 46
0.0
 47
0.0
 48
0.0
 49
0.0
140
0.0
141
0.0
142
1.0
143
1.0
 70
   688
 72
     0
 73
     0
 74
     5
  7

 75
    16
147
1.0
148
0.0
149
0.0
100
AcDbLayout
  1
Layout1
 70
     1
 71
     1
 10
0.0
 20
0.0
 11
420.0
 21
297.0
 12
0.0
 22
0.0
 32
0.0
 14
0.0
 24
0.0
 34
0.0
 15
420.0
 25
297.0
 35
0.0
146
0.0
 13
0.0
 23
0.0
 33
0.0
 16
1.0
 26
0.0
 36
0.0
 17
0.0
 27
1.0
 37
0.0
 76
     0
330
1B
  0
LAYOUT
  5
26
102
{ACAD_REACTORS
330
1A
102
}
330
1A
100
AcDbPlotSettings
  1

  2
none_device
  4

  6

 40
0.0
 41
0.0
 42
0.0
 43
0.0
 44
0.0
 45
0.0
 46
0.0
 47
0.0
 48
0.0
 49
0.0
140
0.0
141
0.0
142
1.0
143
1.0
 70
   688
 72
     0
 73
     0
 74
     5
  7

 75
    16
147
1.0
148
0.0
149
0.0
100
AcDbLayout
  1
Layout2
 70
     1
 71
     2
 10
0.0
 20
0.0
 11
0.0
 21
0.0
 12
0.0
 22
0.0
 32
0.0
 14
0.0
 24
0.0
 34
0.0
 15
0.0
 25
0.0
 35
0.0
146
0.0
 13
0.0
 23
0.0
 33
0.0
 16
1.0
 26
0.0
 36
0.0
 17
0.0
 27
1.0
 37
0.0
 76
     0
330
23
  0
LAYOUT
  5
22
102
{ACAD_REACTORS
330
1A
102
}
330
1A
100
AcDbPlotSettings
  1

  2
none_device
  4
Letter_(8.50_x_11.00_Inches)
  6

 40
6.35
 41
6.35
 42
6.35000508
 43
6.35000508
 44
215.9
 45
279.4
 46
0.0
 47
0.0
 48
0.0
 49
0.0
140
0.0
141
0.0
142
1.0
143
1.0
 70
  1712
 72
     0
 73
     0
 74
     0
  7

 75
     0
147
1.0
148
0.0
149
0.0
100
AcDbLayout
  1
Model
 70
     1
 71
     0
 10
0.0
 20
0.0
 11
420.0
 21
297.0
 12
0.0
 22
0.0
 32
0.0
 14
0.0
 24
0.0
 34
0.0
 15
412.3526198775281
 25
292.6392256760024
 35
0.0
146
0.0
 13
0.0
 23
0.0
 33
0.0
 16
1.0
 26
0.0
 36
0.0
 17
0.0
 27
1.0
 37
0.0
 76
     0
330
1F
331
29
  0
MATERIAL
  5
45
102
{ACAD_REACTORS
330
43
102
}
102
{ACAD_XDICTIONARY
360
3CC
102
}
330
43
100
AcDbMaterial
  1
ByBlock
  0
MATERIAL
  5
44
102
{ACAD_REACTORS
330
43
102
}
102
{ACAD_XDICTIONARY
360
3CA
102
}
330
43
100
AcDbMaterial
  1
ByLayer
  0
MATERIAL
  5
46
102
{ACAD_REACTORS
330
43
102
}
102
{ACAD_XDICTIONARY
360
3CE
102
}
330
43
100
AcDbMaterial
  1
Global
  0
MLEADERSTYLE
  5
6C
102
{ACAD_REACTORS
330
6B
102
}
102
{ACAD_XDICTIONARY
360
3D1
102
}
330
6B
100
AcDbMLeaderStyle
170
     2
171
     1
172
     0
 90
        2
 40
0.0
 41
0.0
173
     1
 91
-1056964608
340
14
 92
       -2
290
     1
 42
0.09
291
     1
 43
0.36
  3
Standard
341
0
 44
0.18
300

342
11
174
     1
178
     6
175
     1
176
     0
 93
-1056964608
 45
0.18
292
     0
297
     0
 46
0.18
343
0
 94
-1056964608
 47
1.0
 49
1.0
140
1.0
293
     1
141
0.0
294
     1
177
     0
142
1.0
295
     0
296
     0
143
0.125
1001
ACAD_MLEADERVER
1070
     2
  0
MLINESTYLE
  5
18
102
{ACAD_REACTORS
330
17
102
}
330
17
100
AcDbMlineStyle
  2
Standard
 70
     0
  3

 62
   256
 51
90.0
 52
90.0
 71
     2
 49
0.5
 62
   256
  6
BYLAYER
 49
-0.5
 62
   256
  6
BYLAYER
  0
ACDBPLACEHOLDER
  5
F
102
{ACAD_REACTORS
330
E
102
}
330
E
  0
SCALE
  5
48
102
{ACAD_REACTORS
330
47
102
}
330
47
100
AcDbScale
 70
     0
300
1:1
140
1.0
141
1.0
290
     1
  0
SCALE
  5
49
102
{ACAD_REACTORS
330
47
102
}
330
47
100
AcDbScale
 70
     0
300
1:2
140
1.0
141
2.0
290
     0
  0
SCALE
  5
4A
102
{ACAD_REACTORS
330
47
102
}
330
47
100
AcDbScale
 70
     0
300
1:4
140
1.0
141
4.0
290
     0
  0
SCALE
  5
4B
102
{ACAD_REACTORS
330
47
102
}
330
47
100
AcDbScale
 70
     0
300
1:5
140
1.0
141
5.0
290
     0
  0
SCALE
  5
4C
102
{ACAD_REACTORS
330
47
102
}
330
47
100
AcDbScale
 70
     0
300
1:8
140
1.0
141
8.0
290
     0
  0
SCALE
  5
4D
102
{ACAD_REACTORS
330
47
102
}
330
47
100
AcDbScale
 70
     0
300
1:10
140
1.0
141
10.0
290
     0
  0
SCALE
  5
4E
102
{ACAD_REACTORS
330
47
102
}
330
47
100
AcDbScale
 70
     0
300
1:16
140
1.0
141
16.0
290
     0
  0
SCALE
  5
4F
102
{ACAD_REACTORS
330
47
102
}
330
47
100
AcDbScale
 70
     0
300
1:20
140
1.0
141
20.0
290
     0
  0
SCALE
  5
50
102
{ACAD_REACTORS
330
47
102
}
330
47
100
AcDbScale
 70
     0
300
1:30
140
1.0
141
30.0
290
     0
  0
SCALE
  5
51
102
{ACAD_REACTORS
330
47
102
}
330
47
100
AcDbScale
 70
     0
300
1:40
140
1.0
141
40.0
290
     0
  0
SCALE
  5
52
102
{ACAD_REACTORS
330
47
102
}
330
47
100
AcDbScale
 70
     0
300
1:50
140
1.0
141
50.0
290
     0
  0
SCALE
  5
53
102
{ACAD_REACTORS
330
47
102
}
330
47
100
AcDbScale
 70
     0
300
1:100
140
1.0
141
100.0
290
     0
  0
SCALE
  5
54
102
{ACAD_REACTORS
330
47
102
}
330
47
100
AcDbScale
 70
     0
300
2:1
140
2.0
141
1.0
290
     0
  0
SCALE
  5
55
102
{ACAD_REACTORS
330
47
102
}
330
47
100
AcDbScale
 70
     0
300
4:1
140
4.0
141
1.0
290
     0
  0
SCALE
  5
56
102
{ACAD_REACTORS
330
47
102
}
330
47
100
AcDbScale
 70
     0
300
8:1
140
8.0
141
1.0
290
     0
  0
SCALE
  5
57
102
{ACAD_REACTORS
330
47
102
}
330
47
100
AcDbScale
 70
     0
300
10:1
140
10.0
141
1.0
290
     0
  0
SCALE
  5
58
102
{ACAD_REACTORS
330
47
102
}
330
47
100
AcDbScale
 70
     0
300
100:1
140
100.0
141
1.0
290
     0
  0
SCALE
  5
59
102
{ACAD_REACTORS
330
47
102
}
330
47
100
AcDbScale
 70
     0
300
1/128" = 1'-0"
140
0.0078125
141
12.0
290
     0
  0
SCALE
  5
5A
102
{ACAD_REACTORS
330
47
102
}
330
47
100
AcDbScale
 70
     0
300
1/64" = 1'-0"
140
0.015625
141
12.0
290
     0
  0
SCALE
  5
5B
102
{ACAD_REACTORS
330
47
102
}
330
47
100
AcDbScale
 70
     0
300
1/32" = 1'-0"
140
0.03125
141
12.0
290
     0
  0
SCALE
  5
5C
102
{ACAD_REACTORS
330
47
102
}
330
47
100
AcDbScale
 70
     0
300
1/16" = 1'-0"
140
0.0625
141
12.0
290
     0
  0
SCALE
  5
5D
102
{ACAD_REACTORS
330
47
102
}
330
47
100
AcDbScale
 70
     0
300
3/32" = 1'-0"
140
0.09375
141
12.0
290
     0
  0
SCALE
  5
5E
102
{ACAD_REACTORS
330
47
102
}
330
47
100
AcDbScale
 70
     0
300
1/8" = 1'-0"
140
0.125
141
12.0
290
     0
  0
SCALE
  5
5F
102
{ACAD_REACTORS
330
47
102
}
330
47
100
AcDbScale
 70
     0
300
3/16" = 1'-0"
140
0.1875
141
12.0
290
     0
  0
SCALE
  5
60
102
{ACAD_REACTORS
330
47
102
}
330
47
100
AcDbScale
 70
     0
300
1/4" = 1'-0"
140
0.25
141
12.0
290
     0
  0
SCALE
  5
61
102
{ACAD_REACTORS
330
47
102
}
330
47
100
AcDbScale
 70
     0
300
3/8" = 1'-0"
140
0.375
141
12.0
290
     0
  0
SCALE
  5
62
102
{ACAD_REACTORS
330
47
102
}
330
47
100
AcDbScale
 70
     0
300
1/2" = 1'-0"
140
0.5
141
12.0
290
     0
  0
SCALE
  5
63
102
{ACAD_REACTORS
330
47
102
}
330
47
100
AcDbScale
 70
     0
300
3/4" = 1'-0"
140
0.75
141
12.0
290
     0
  0
SCALE
  5
64
102
{ACAD_REACTORS
330
47
102
}
330
47
100
AcDbScale
 70
     0
300
1" = 1'-0"
140
1.0
141
12.0
290
     0
  0
SCALE
  5
65
102
{ACAD_REACTORS
330
47
102
}
330
47
100
AcDbScale
 70
     0
300
1-1/2" = 1'-0"
140
1.5
141
12.0
290
     0
  0
SCALE
  5
66
102
{ACAD_REACTORS
330
47
102
}
330
47
100
AcDbScale
 70
     0
300
3" = 1'-0"
140
3.0
141
12.0
290
     0
  0
SCALE
  5
67
102
{ACAD_REACTORS
330
47
102
}
330
47
100
AcDbScale
 70
     0
300
6" = 1'-0"
140
6.0
141
12.0
290
     0
  0
SCALE
  5
68
102
{ACAD_REACTORS
330
47
102
}
330
47
100
AcDbScale
 70
     0
300
1'-0" = 1'-0"
140
12.0
141
12.0
290
     0
  0
TABLESTYLE
  5
6A
102
{ACAD_REACTORS
330
69
102
}
330
69
100
AcDbTableStyle
  3
Standard
 70
     0
 71
     0
 40
0.06
 41
0.06
280
     0
281
     0
  7
Standard
140
0.18
170
     2
 62
     0
 63
   257
283
     0
274
    -2
284
     1
 64
     0
275
    -2
285
     1
 65
     0
276
    -2
286
     1
 66
     0
277
    -2
287
     1
 67
     0
278
    -2
288
     1
 68
     0
279
    -2
289
     1
 69
     0
  7
Standard
140
0.25
170
     5
 62
     0
 63
   257
283
     0
274
    -2
284
     1
 64
     0
275
    -2
285
     1
 65
     0
276
    -2
286
     1
 66
     0
277
    -2
287
     1
 67
     0
278
    -2
288
     1
 68
     0
279
    -2
289
     1
 69
     0
  7
Standard
140
0.18
170
     5
 62
     0
 63
   257
283
     0
274
    -2
284
     1
 64
     0
275
    -2
285
     1
 65
     0
276
    -2
286
     1
 66
     0
277
    -2
287
     1
 67
     0
278
    -2
288
     1
 68
     0
279
    -2
289
     1
 69
     0
  0
VISUALSTYLE
  5
2F
102
{ACAD_REACTORS
330
2A
102
}
102
{ACAD_XDICTIONARY
360
3A2
102
}
330
2A
100
AcDbVisualStyle
  2
2dWireframe
 70
     4
 71
     0
 72
     2
 73
     0
 90
        0
 40
0.6
 41
30.0
 62
     5
 63
     7
 74
     1
 91
        4
 64
     7
 65
   257
 75
     1
175
     1
 42
1.0
 92
        0
 66
   257
 43
1.0
 76
     1
 77
     6
 78
     2
 67
     7
 79
     5
170
     0
171
     0
290
     0
174
     0
 93
        1
 44
0.0
173
     0
291
     0
 45
0.0
1001
ACAD
1000
AcDbSavedByObjectVersion
1070
     0
  0
VISUALSTYLE
  5
32
102
{ACAD_REACTORS
330
2A
102
}
102
{ACAD_XDICTIONARY
360
3A8
102
}
330
2A
100
AcDbVisualStyle
  2
Basic
 70
     7
 71
     1
 72
     0
 73
     1
 90
        0
 40
0.6
 41
30.0
 62
     5
 63
     7
 74
     0
 91
        4
 64
     7
 65
   257
 75
     1
175
     1
 42
1.0
 92
        8
 66
     7
 43
1.0
 76
     1
 77
     6
 78
     2
 67
     7
 79
     5
170
     0
171
     0
290
     0
174
     0
 93
        1
 44
0.0
173
     0
291
     1
 45
0.0
1001
ACAD
1000
AcDbSavedByObjectVersion
1070
     0
  0
VISUALSTYLE
  5
36
102
{ACAD_REACTORS
330
2A
102
}
102
{ACAD_XDICTIONARY
360
3B0
102
}
330
2A
100
AcDbVisualStyle
  2
Brighten
 70
    12
 71
     2
 72
     2
 73
     0
 90
        0
 40
0.6
 41
30.0
 62
     5
 63
     7
 74
     1
 91
        4
 64
     7
 65
   257
 75
     1
175
     1
 42
1.0
 92
        8
 66
     7
 43
1.0
 76
     1
 77
     6
 78
     2
 67
     7
 79
     5
170
     0
171
     0
290
     0
174
     0
 93
        1
 44
50.0
173
     0
291
     1
 45
0.0
1001
ACAD
1000
AcDbSavedByObjectVersion
1070
     0
  0
VISUALSTYLE
  5
3A
102
{ACAD_REACTORS
330
2A
102
}
102
{ACAD_XDICTIONARY
360
3B8
102
}
330
2A
100
AcDbVisualStyle
  2
ColorChange
 70
    16
 71
     2
 72
     2
 73
     3
 90
        0
 40
0.6
 41
30.0
 62
     5
 63
     8
 74
     1
 91
        4
 64
     7
 65
   257
 75
     1
175
     1
 42
1.0
 92
        8
 66
     8
 43
1.0
 76
     1
 77
     6
 78
     2
 67
     7
 79
     5
170
     0
171
     0
290
     0
174
     0
 93
        1
 44
0.0
173
     0
291
     1
 45
0.0
1001
ACAD
1000
AcDbSavedByObjectVersion
1070
     0
  0
VISUALSTYLE
  5
34
102
{ACAD_REACTORS
330
2A
102
}
102
{ACAD_XDICTIONARY
360
3AC
102
}
330
2A
100
AcDbVisualStyle
  2
Conceptual
 70
     9
 71
     3
 72
     2
 73
     0
 90
        0
 40
0.6
 41
30.0
 62
     5
 63
     7
 74
     2
 91
        2
 64
     7
 65
   257
 75
     1
175
     1
 42
179.0
 92
        8
 66
     7
 43
1.0
 76
     1
 77
     6
 78
     2
 67
     7
 79
     3
170
     0
171
     0
290
     0
174
     0
 93
        1
 44
0.0
173
     0
291
     0
 45
0.0
1001
ACAD
1000
AcDbSavedByObjectVersion
1070
     0
  0
VISUALSTYLE
  5
35
102
{ACAD_REACTORS
330
2A
102
}
102
{ACAD_XDICTIONARY
360
3AE
102
}
330
2A
100
AcDbVisualStyle
  2
Dim
 70
    11
 71
     2
 72
     2
 73
     0
 90
        0
 40
0.6
 41
30.0
 62
     5
 63
     7
 74
     1
 91
        4
 64
     7
 65
   257
 75
     1
175
     1
 42
1.0
 92
        8
 66
     7
 43
1.0
 76
     1
 77
     6
 78
     2
 67
     7
 79
     5
170
     0
171
     0
290
     0
174
     0
 93
        1
 44
-50.0
173
     0
291
     1
 45
0.0
1001
ACAD
1000
AcDbSavedByObjectVersion
1070
     0
  0
VISUALSTYLE
  5
3D
102
{ACAD_REACTORS
330
2A
102
}
102
{ACAD_XDICTIONARY
360
3BE
102
}
330
2A
100
AcDbVisualStyle
  2
EdgeColorOff
 70
    22
 71
     2
 72
     2
 73
     0
 90
        0
 40
0.6
 41
30.0
 62
     5
 63
     7
 74
     1
 91
        4
 64
     7
 65
   257
 75
     1
175
     1
 42
1.0
 92
        8
 66
     7
 43
1.0
 76
     1
 77
     6
 78
     2
 67
     7
 79
     5
170
     0
171
     0
290
     0
174
     0
 93
        1
 44
0.0
173
     0
291
     1
 45
0.0
1001
ACAD
1000
AcDbSavedByObjectVersion
1070
     0
  0
VISUALSTYLE
  5
39
102
{ACAD_REACTORS
330
2A
102
}
102
{ACAD_XDICTIONARY
360
3B6
102
}
330
2A
100
AcDbVisualStyle
  2
Facepattern
 70
    15
 71
     2
 72
     2
 73
     0
 90
        0
 40
0.6
 41
30.0
 62
     5
 63
     7
 74
     1
 91
        4
 64
     7
 65
   257
 75
     1
175
     1
 42
1.0
 92
        8
 66
     7
 43
1.0
 76
     1
 77
     6
 78
     2
 67
     7
 79
     5
170
     0
171
     0
290
     0
174
     0
 93
        1
 44
0.0
173
     0
291
     1
 45
0.0
1001
ACAD
1000
AcDbSavedByObjectVersion
1070
     0
  0
VISUALSTYLE
  5
2B
102
{ACAD_REACTORS
330
2A
102
}
102
{ACAD_XDICTIONARY
360
39A
102
}
330
2A
100
AcDbVisualStyle
  2
Flat
 70
     0
 71
     2
 72
     1
 73
     1
 90
        2
 40
0.6
 41
30.0
 62
     5
 63
     7
 74
     0
 91
        0
 64
     7
 65
   257
 75
     1
175
     1
 42
1.0
 92
        8
 66
     7
 43
1.0
 76
     1
 77
     6
 78
     2
 67
     7
 79
     5
170
     0
171
     0
290
     0
174
     0
 93
       13
 44
0.0
173
     0
291
     1
 45
0.0
1001
ACAD
1000
AcDbSavedByObjectVersion
1070
     0
  0
VISUALSTYLE
  5
2C
102
{ACAD_REACTORS
330
2A
102
}
102
{ACAD_XDICTIONARY
360
39C
102
}
330
2A
100
AcDbVisualStyle
  2
FlatWithEdges
 70
     1
 71
     2
 72
     1
 73
     1
 90
        2
 40
0.6
 41
30.0
 62
     5
 63
     7
 74
     1
 91
        0
 64
     7
 65
   257
 75
     1
175
     1
 42
1.0
 92
        0
 66
   257
 43
1.0
 76
     1
 77
     6
 78
     2
 67
     7
 79
     5
170
     0
171
     0
290
     0
174
     0
 93
       13
 44
0.0
173
     0
291
     1
 45
0.0
1001
ACAD
1000
AcDbSavedByObjectVersion
1070
     0
  0
VISUALSTYLE
  5
2D
102
{ACAD_REACTORS
330
2A
102
}
102
{ACAD_XDICTIONARY
360
39E
102
}
330
2A
100
AcDbVisualStyle
  2
Gouraud
 70
     2
 71
     2
 72
     2
 73
     1
 90
        2
 40
0.6
 41
30.0
 62
     5
 63
     7
 74
     0
 91
        0
 64
     7
 65
   257
 75
     1
175
     1
 42
1.0
 92
        0
 66
     7
 43
1.0
 76
     1
 77
     6
 78
     2
 67
     7
 79
     5
170
     0
171
     0
290
     0
174
     0
 93
       13
 44
0.0
173
     0
291
     1
 45
0.0
1001
ACAD
1000
AcDbSavedByObjectVersion
1070
     0
  0
VISUALSTYLE
  5
2E
102
{ACAD_REACTORS
330
2A
102
}
102
{ACAD_XDICTIONARY
360
3A0
102
}
330
2A
100
AcDbVisualStyle
  2
GouraudWithEdges
 70
     3
 71
     2
 72
     2
 73
     1
 90
        2
 40
0.6
 41
30.0
 62
     5
 63
     7
 74
     1
 91
        0
 64
     7
 65
   257
 75
     1
175
     1
 42
1.0
 92
        0
 66
   257
 43
1.0
 76
     1
 77
     6
 78
     2
 67
     7
 79
     5
170
     0
171
     0
290
     0
174
     0
 93
       13
 44
0.0
173
     0
291
     1
 45
0.0
1001
ACAD
1000
AcDbSavedByObjectVersion
1070
     0
  0
VISUALSTYLE
  5
31
102
{ACAD_REACTORS
330
2A
102
}
102
{ACAD_XDICTIONARY
360
3A6
102
}
330
2A
100
AcDbVisualStyle
  2
Hidden
 70
     6
 71
     1
 72
     2
 73
     2
 90
        0
 40
0.6
 41
30.0
 62
     5
 63
     7
 74
     2
 91
        2
 64
     7
 65
   257
 75
     2
175
     1
 42
40.0
 92
        0
 66
   257
 43
1.0
 76
     1
 77
     6
 78
     2
 67
     7
 79
     3
170
     0
171
     0
290
     0
174
     0
 93
        1
 44
0.0
173
     0
291
     0
 45
0.0
1001
ACAD
1000
AcDbSavedByObjectVersion
1070
     0
  0
VISUALSTYLE
  5
3B
102
{ACAD_REACTORS
330
2A
102
}
102
{ACAD_XDICTIONARY
360
3BA
102
}
330
2A
100
AcDbVisualStyle
  2
JitterOff
 70
    20
 71
     2
 72
     2
 73
     0
 90
        0
 40
0.6
 41
30.0
 62
     5
 63
     7
 74
     1
 91
        4
 64
     7
 65
   257
 75
     1
175
     1
 42
1.0
 92
       10
 66
     7
 43
1.0
 76
     1
 77
     6
 78
     2
 67
     7
 79
     5
170
     0
171
     0
290
     0
174
     0
 93
        1
 44
0.0
173
     0
291
     1
 45
0.0
1001
ACAD
1000
AcDbSavedByObjectVersion
1070
     0
  0
VISUALSTYLE
  5
38
102
{ACAD_REACTORS
330
2A
102
}
102
{ACAD_XDICTIONARY
360
3B4
102
}
330
2A
100
AcDbVisualStyle
  2
Linepattern
 70
    14
 71
     2
 72
     2
 73
     0
 90
        0
 40
0.6
 41
30.0
 62
     5
 63
     7
 74
     1
 91
        4
 64
     7
 65
   257
 75
     7
175
     7
 42
1.0
 92
        8
 66
     7
 43
1.0
 76
     1
 77
     6
 78
     2
 67
     7
 79
     5
170
     0
171
     0
290
     0
174
     0
 93
        1
 44
0.0
173
     0
291
     1
 45
0.0
1001
ACAD
1000
AcDbSavedByObjectVersion
1070
     0
  0
VISUALSTYLE
  5
3C
102
{ACAD_REACTORS
330
2A
102
}
102
{ACAD_XDICTIONARY
360
3BC
102
}
330
2A
100
AcDbVisualStyle
  2
OverhangOff
 70
    21
 71
     2
 72
     2
 73
     0
 90
        0
 40
0.6
 41
30.0
 62
     5
 63
     7
 74
     1
 91
        4
 64
     7
 65
   257
 75
     1
175
     1
 42
1.0
 92
        9
 66
     7
 43
1.0
 76
     1
 77
     6
 78
     2
 67
     7
 79
     5
170
     0
171
     0
290
     0
174
     0
 93
        1
 44
0.0
173
     0
291
     1
 45
0.0
1001
ACAD
1000
AcDbSavedByObjectVersion
1070
     0
  0
VISUALSTYLE
  5
33
102
{ACAD_REACTORS
330
2A
102
}
102
{ACAD_XDICTIONARY
360
3AA
102
}
330
2A
100
AcDbVisualStyle
  2
Realistic
 70
     8
 71
     2
 72
     3
 73
     0
 90
        2
 40
0.6
 41
30.0
 62
     5
 63
     7
 74
     0
 91
        0
 64
     7
 65
   257
 75
     1
175
     1
 42
1.0
 92
        8
 66
   257
 43
1.0
 76
     1
 77
     6
 78
     2
 67
     7
 79
     3
170
     0
171
     0
290
     0
174
     0
 93
       13
 44
0.0
173
     0
291
     0
 45
0.0
1001
ACAD
1000
AcDbSavedByObjectVersion
1070
     0
  0
VISUALSTYLE
  5
42
102
{ACAD_REACTORS
330
2A
102
}
102
{ACAD_XDICTIONARY
360
3C8
102
}
330
2A
100
AcDbVisualStyle
  2
Shaded
 70
    27
 71
     2
 72
     2
 73
     1
 90
        2
 40
0.6
 41
30.0
 62
     5
 63
     7
 74
     0
 91
        4
 64
     7
 65
   257
 75
     1
175
     1
 42
1.0
 92
        8
 66
   257
 43
1.0
 76
     1
 77
     6
 78
     2
 67
     8
 79
     3
170
     0
171
     0
290
     0
174
     0
 93
        5
 44
0.0
173
     0
291
     0
 45
0.0
1001
ACAD
1000
AcDbSavedByObjectVersion
1070
     0
  0
VISUALSTYLE
  5
41
102
{ACAD_REACTORS
330
2A
102
}
102
{ACAD_XDICTIONARY
360
3C6
102
}
330
2A
100
AcDbVisualStyle
  2
Shaded with edges
 70
    26
 71
     2
 72
     2
 73
     1
 90
        2
 40
0.6
 41
30.0
 62
     5
 63
     7
 74
     1
 91
       10
 64
     7
 65
   257
 75
     2
175
     1
 42
1.0
 92
        8
 66
   257
 43
1.0
 76
     1
 77
     6
 78
     2
 67
     7
 79
     3
170
     0
171
     0
290
     0
174
     0
 93
        5
 44
0.0
173
     0
291
     0
 45
0.0
1001
ACAD
1000
AcDbSavedByObjectVersion
1070
     0
  0
VISUALSTYLE
  5
3E
102
{ACAD_REACTORS
330
2A
102
}
102
{ACAD_XDICTIONARY
360
3C0
102
}
330
2A
100
AcDbVisualStyle
  2
Shades of Gray
 70
    23
 71
     2
 72
     2
 73
     3
 90
        0
 40
0.6
 41
30.0
 62
     5
 63
     7
 74
     2
 91
        2
 64
     7
 65
     7
 75
     1
175
     1
 42
40.0
 92
        8
 66
     7
 43
1.0
 76
     1
 77
     6
 78
     2
 67
     7
 79
     3
170
     0
171
     0
290
     0
174
     0
 93
        1
 44
0.0
173
     0
291
     0
 45
0.0
1001
ACAD
1000
AcDbSavedByObjectVersion
1070
     0
  0
VISUALSTYLE
  5
3F
102
{ACAD_REACTORS
330
2A
102
}
102
{ACAD_XDICTIONARY
360
3C2
102
}
330
2A
100
AcDbVisualStyle
  2
Sketchy
 70
    24
 71
     1
 72
     2
 73
     2
 90
        0
 40
0.6
 41
30.0
 62
     5
 63
     7
 74
     2
 91
        2
 64
     7
 65
     7
 75
     1
175
     1
 42
40.0
 92
       11
 66
     7
 43
1.0
 76
     1
 77
     6
 78
     2
 67
     7
 79
     6
170
     0
171
     0
290
     0
174
     0
 93
        1
 44
0.0
173
     0
291
     0
 45
0.0
1001
ACAD
1000
AcDbSavedByObjectVersion
1070
     0
  0
VISUALSTYLE
  5
37
102
{ACAD_REACTORS
330
2A
102
}
102
{ACAD_XDICTIONARY
360
3B2
102
}
330
2A
100
AcDbVisualStyle
  2
Thicken
 70
    13
 71
     2
 72
     2
 73
     0
 90
        0
 40
0.6
 41
30.0
 62
     5
 63
     7
 74
     1
 91
        4
 64
     7
 65
   257
 75
     1
175
     1
 42
1.0
 92
       12
 66
     7
 43
1.0
 76
     1
 77
     6
 78
     2
 67
     7
 79
     5
170
     0
171
     0
290
     0
174
     0
 93
        1
 44
0.0
173
     0
291
     1
 45
0.0
1001
ACAD
1000
AcDbSavedByObjectVersion
1070
     0
  0
VISUALSTYLE
  5
30
102
{ACAD_REACTORS
330
2A
102
}
102
{ACAD_XDICTIONARY
360
3A4
102
}
330
2A
100
AcDbVisualStyle
  2
Wireframe
 70
     5
 71
     0
 72
     2
 73
     0
 90
        0
 40
0.6
 41
30.0
 62
     5
 63
     7
 74
     1
 91
        4
 64
     7
 65
   257
 75
     1
175
     1
 42
1.0
 92
        0
 66
   257
 43
1.0
 76
     1
 77
     6
 78
     2
 67
     7
 79
     3
170
     0
171
     0
290
     0
174
     0
 93
        1
 44
0.0
173
     0
291
     0
 45
0.0
1001
ACAD
1000
AcDbSavedByObjectVersion
1070
     0
  0
VISUALSTYLE
  5
40
102
{ACAD_REACTORS
330
2A
102
}
102
{ACAD_XDICTIONARY
360
3C4
102
}
330
2A
100
AcDbVisualStyle
  2
X-Ray
 70
    25
 71
     2
 72
     2
 73
     1
 90
        1
 40
0.5
 41
30.0
 62
     5
 63
     7
 74
     1
 91
        0
 64
     7
 65
   257
 75
     1
175
     1
 42
1.0
 92
        8
 66
     7
 43
1.0
 76
     1
 77
     6
 78
     2
 67
     7
 79
     3
170
     0
171
     0
290
     0
174
     0
 93
       13
 44
0.0
173
     0
291
     0
 45
0.0
1001
ACAD
1000
AcDbSavedByObjectVersion
1070
     0
  0
DICTIONARYVAR
  5
398
102
{ACAD_REACTORS
330
38E
102
}
330
38E
100
DictionaryVariables
280
     0
  1
1:1
  0
DICTIONARYVAR
  5
390
102
{ACAD_REACTORS
330
38E
102
}
330
38E
100
DictionaryVariables
280
     0
  1
Standard
  0
DICTIONARYVAR
  5
38F
102
{ACAD_REACTORS
330
38E
102
}
330
38E
100
DictionaryVariables
280
     0
  1
Standard
  0
DICTIONARYVAR
  5
391
102
{ACAD_REACTORS
330
38E
102
}
330
38E
100
DictionaryVariables
280
     0
  1
1
  0
DICTIONARYVAR
  5
394
102
{ACAD_REACTORS
330
38E
102
}
330
38E
100
DictionaryVariables
280
     0
  1
1
  0
DICTIONARYVAR
  5
399
102
{ACAD_REACTORS
330
38E
102
}
330
38E
100
DictionaryVariables
280
     0
  1
1
  0
DICTIONARY
  5
3CC
330
45
100
AcDbDictionary
280
     1
281
     1
  3
ACAD_XREC_ROUNDTRIP
360
3CD
  0
DICTIONARY
  5
3CA
330
44
100
AcDbDictionary
280
     1
281
     1
  3
ACAD_XREC_ROUNDTRIP
360
3CB
  0
DICTIONARY
  5
3CE
330
46
100
AcDbDictionary
280
     1
281
     1
  3
ACAD_XREC_ROUNDTRIP
360
3CF
  0
DICTIONARY
  5
3D1
330
6C
100
AcDbDictionary
280
     1
281
     1
  3
ACAD_XREC_ROUNDTRIP
360
3D2
  0
DICTIONARY
  5
3A2
330
2F
100
AcDbDictionary
280
     1
281
     1
  3
ACAD_XREC_ROUNDTRIP
360
3A3
  0
DICTIONARY
  5
3A8
330
32
100
AcDbDictionary
280
     1
281
     1
  3
ACAD_XREC_ROUNDTRIP
360
3A9
  0
DICTIONARY
  5
3B0
330
36
100
AcDbDictionary
280
     1
281
     1
  3
ACAD_XREC_ROUNDTRIP
360
3B1
  0
DICTIONARY
  5
3B8
330
3A
100
AcDbDictionary
280
     1
281
     1
  3
ACAD_XREC_ROUNDTRIP
360
3B9
  0
DICTIONARY
  5
3AC
330
34
100
AcDbDictionary
280
     1
281
     1
  3
ACAD_XREC_ROUNDTRIP
360
3AD
  0
DICTIONARY
  5
3AE
330
35
100
AcDbDictionary
280
     1
281
     1
  3
ACAD_XREC_ROUNDTRIP
360
3AF
  0
DICTIONARY
  5
3BE
330
3D
100
AcDbDictionary
280
     1
281
     1
  3
ACAD_XREC_ROUNDTRIP
360
3BF
  0
DICTIONARY
  5
3B6
330
39
100
AcDbDictionary
280
     1
281
     1
  3
ACAD_XREC_ROUNDTRIP
360
3B7
  0
DICTIONARY
  5
39A
330
2B
100
AcDbDictionary
280
     1
281
     1
  3
ACAD_XREC_ROUNDTRIP
360
39B
  0
DICTIONARY
  5
39C
330
2C
100
AcDbDictionary
280
     1
281
     1
  3
ACAD_XREC_ROUNDTRIP
360
39D
  0
DICTIONARY
  5
39E
330
2D
100
AcDbDictionary
280
     1
281
     1
  3
ACAD_XREC_ROUNDTRIP
360
39F
  0
DICTIONARY
  5
3A0
330
2E
100
AcDbDictionary
280
     1
281
     1
  3
ACAD_XREC_ROUNDTRIP
360
3A1
  0
DICTIONARY
  5
3A6
330
31
100
AcDbDictionary
280
     1
281
     1
  3
ACAD_XREC_ROUNDTRIP
360
3A7
  0
DICTIONARY
  5
3BA
330
3B
100
AcDbDictionary
280
     1
281
     1
  3
ACAD_XREC_ROUNDTRIP
360
3BB
  0
DICTIONARY
  5
3B4
330
38
100
AcDbDictionary
280
     1
281
     1
  3
ACAD_XREC_ROUNDTRIP
360
3B5
  0
DICTIONARY
  5
3BC
330
3C
100
AcDbDictionary
280
     1
281
     1
  3
ACAD_XREC_ROUNDTRIP
360
3BD
  0
DICTIONARY
  5
3AA
330
33
100
AcDbDictionary
280
     1
281
     1
  3
ACAD_XREC_ROUNDTRIP
360
3AB
  0
DICTIONARY
  5
3C8
330
42
100
AcDbDictionary
280
     1
281
     1
  3
ACAD_XREC_ROUNDTRIP
360
3C9
  0
DICTIONARY
  5
3C6
330
41
100
AcDbDictionary
280
     1
281
     1
  3
ACAD_XREC_ROUNDTRIP
360
3C7
  0
DICTIONARY
  5
3C0
330
3E
100
AcDbDictionary
280
     1
281
     1
  3
ACAD_XREC_ROUNDTRIP
360
3C1
  0
DICTIONARY
  5
3C2
330
3F
100
AcDbDictionary
280
     1
281
     1
  3
ACAD_XREC_ROUNDTRIP
360
3C3
  0
DICTIONARY
  5
3B2
330
37
100
AcDbDictionary
280
     1
281
     1
  3
ACAD_XREC_ROUNDTRIP
360
3B3
  0
DICTIONARY
  5
3A4
330
30
100
AcDbDictionary
280
     1
281
     1
  3
ACAD_XREC_ROUNDTRIP
360
3A5
  0
DICTIONARY
  5
3C4
330
40
100
AcDbDictionary
280
     1
281
     1
  3
ACAD_XREC_ROUNDTRIP
360
3C5
  0
XRECORD
  5
3CD
102
{ACAD_REACTORS
330
3CC
102
}
330
3CC
100
AcDbXrecord
280
     1
102
MATERIAL
148
0.0
149
0.0
149
0.0
 93
        0
 94
      127
282
     0
 72
     1
 77
     1
171
     1
175
     1
179
     1
273
     0
  0
XRECORD
  5
3CB
102
{ACAD_REACTORS
330
3CA
102
}
330
3CA
100
AcDbXrecord
280
     1
102
MATERIAL
148
0.0
149
0.0
149
0.0
 93
        0
 94
      127
282
     0
 72
     1
 77
     1
171
     1
175
     1
179
     1
273
     0
  0
XRECORD
  5
3CF
102
{ACAD_REACTORS
330
3CE
102
}
330
3CE
100
AcDbXrecord
280
     1
102
MATERIAL
148
0.0
149
0.0
149
0.0
 93
        0
 94
      127
282
     0
 72
     1
 77
     1
171
     1
175
     1
179
     1
273
     0
  0
XRECORD
  5
3D2
102
{ACAD_REACTORS
330
3D1
102
}
330
3D1
100
AcDbXrecord
280
     1
102
ACAD_ROUNDTRIP_2010_MLEADER_STYLE
  0
XRECORD
  5
3A3
102
{ACAD_REACTORS
330
3A2
102
}
330
3A2
100
AcDbXrecord
280
     1
102
RTVSPropertyOp0
 70
     1
102
RTVSPropertyOp1
 70
     1
102
RTVSPropertyOp2
 70
     1
102
RTVSPropertyOp3
 70
     1
102
RTVSPropertyOp4
 70
     1
102
RTVSPropertyOp5
 70
     1
102
RTVSPropertyOp6
 70
     1
102
RTVSPropertyOp7
 70
     1
102
RTVSPropertyOp8
 70
     1
102
RTVSPropertyOp9
 70
     1
102
RTVSPropertyOp10
 70
     1
102
RTVSPropertyOp11
 70
     1
102
RTVSPropertyOp12
 70
     1
102
RTVSPropertyOp13
 70
     1
102
RTVSPropertyOp14
 70
     1
102
RTVSPropertyOp15
 70
     1
102
RTVSPropertyOp16
 70
     1
102
RTVSPropertyOp17
 70
     1
102
RTVSPropertyOp18
 70
     1
102
RTVSPropertyOp19
 70
     1
102
RTVSPropertyOp20
 70
     1
102
RTVSPropertyOp21
 70
     1
102
RTVSPropertyOp22
 70
     1
102
RTVSPropertyOp23
 70
     1
102
RTVSPropertyOp24
 70
     1
102
RTVSPropertyOp25
 70
     1
102
RTVSPropertyOp26
 70
     1
102
RTVSPropertyOp27
 70
     1
102
RTVSPropertyOp28
 70
     1
102
RTVSPropertyOp29
 70
     1
102
RTVSPropertyOp30
 70
     1
102
RTVSPropertyOp31
 70
     1
102
RTVSPropertyOp32
 70
     1
102
RTVSPropertyOp33
 70
     1
102
RTVSPropertyOp34
 70
     1
102
RTVSPropertyOp35
 70
     1
102
RTVSPropertyOp36
 70
     1
102
RTVSPropertyOp37
 70
     1
102
RTVSPropertyOp38
 70
     1
102
RTVSPropertyOp39
 70
     1
102
RTVSPropertyOp40
 70
     1
102
RTVSPropertyOp41
 70
     1
102
RTVSPropertyOp42
 70
     1
102
RTVSPropertyOp43
 70
     1
102
RTVSPropertyOp44
 70
     1
102
RTVSPropertyOp45
 70
     1
102
RTVSPropertyOp46
 70
     1
102
RTVSPropertyOp47
 70
     1
102
RTVSPropertyOp48
 70
     1
102
RTVSPropertyOp49
 70
     1
102
RTVSPropertyOp50
 70
     1
102
RTVSPropertyOp51
 70
     0
102
RTVSPropertyOp52
 70
     0
102
RTVSPropertyOp53
 70
     1
102
RTVSPropertyOp54
 70
     1
102
RTVSPropertyOp55
 70
     1
102
RTVSPropertyOp56
 70
     1
102
RTVSPropertyOp57
 70
     1
102
RTVSPost2010Prop28
280
     1
102
RTVSPost2010PropOp28
 70
     1
102
RTVSPost2010Prop29
280
     1
102
RTVSPost2010PropOp29
 70
     1
102
RTVSPost2010Prop30
280
     0
102
RTVSPost2010PropOp30
 70
     1
102
RTVSPost2010Prop31
280
     0
102
RTVSPost2010PropOp31
 70
     1
102
RTVSPost2010Prop32
280
     0
102
RTVSPost2010PropOp32
 70
     1
102
RTVSPost2010Prop33
280
     0
102
RTVSPost2010PropOp33
 70
     1
102
RTVSPost2010Prop34
280
     0
102
RTVSPost2010PropOp34
 70
     1
102
RTVSPost2010Prop35
280
     0
102
RTVSPost2010PropOp35
 70
     1
102
RTVSPost2010Prop36
280
     0
102
RTVSPost2010PropOp36
 70
     1
102
RTVSPost2010Prop37
 90
       50
102
RTVSPost2010PropOp37
 70
     1
102
RTVSPost2010Prop38
140
0.0
102
RTVSPost2010PropOp38
 70
     1
102
RTVSPost2010Prop39
140
1.0
102
RTVSPost2010PropOp39
 70
     1
102
RTVSPost2010Prop40
 90
        0
102
RTVSPost2010PropOp40
 70
     1
102
RTVSPost2010Prop41ColorIndex
 90
       18
102
RTVSPost2010Prop41ColorRGB
 90
        0
102
RTVSPost2010PropOp41
 70
     1
102
RTVSPost2010Prop42
 90
       50
102
RTVSPost2010PropOp42
 70
     1
102
RTVSPost2010Prop43
 90
        3
102
RTVSPost2010PropOp43
 70
     1
102
RTVSPost2010Prop44ColorIndex
 90
        5
102
RTVSPost2010Prop44ColorRGB
 90
      255
102
RTVSPost2010PropOp44
 70
     1
102
RTVSPost2010Prop45
280
     0
102
RTVSPost2010PropOp45
 70
     1
102
RTVSPost2010Prop46
 90
       50
102
RTVSPost2010PropOp46
 70
     1
102
RTVSPost2010Prop47
 90
       50
102
RTVSPost2010PropOp47
 70
     1
102
RTVSPost2010Prop48
 90
       50
102
RTVSPost2010PropOp48
 70
     1
102
RTVSPost2010Prop49
280
     0
102
RTVSPost2010PropOp49
 70
     1
102
RTVSPost2010Prop50
 90
       50
102
RTVSPost2010PropOp50
 70
     1
102
RTVSPost2010Prop51ColorIndex
 90
      256
102
RTVSPost2010Prop51ColorRGB
 90
-16777216
102
RTVSPost2010PropOp51
 70
     0
102
RTVSPost2010Prop52
140
1.0
102
RTVSPost2010PropOp52
 70
     0
102
RTVSPost2010Prop53
 90
        2
102
RTVSPost2010PropOp53
 70
     1
102
RTVSPost2010Prop54
  1
strokes_ogs.tif
102
RTVSPost2010PropOp54
 70
     1
102
RTVSPost2010Prop55
280
     0
102
RTVSPost2010PropOp55
 70
     1
102
RTVSPost2010Prop56
140
1.0
102
RTVSPost2010PropOp56
 70
     1
102
RTVSPost2010Prop57
140
1.0
102
RTVSPost2010PropOp57
 70
     1
  0
XRECORD
  5
3A9
102
{ACAD_REACTORS
330
3A8
102
}
330
3A8
100
AcDbXrecord
280
     1
102
RTVSPropertyOp0
 70
     1
102
RTVSPropertyOp1
 70
     1
102
RTVSPropertyOp2
 70
     1
102
RTVSPropertyOp3
 70
     1
102
RTVSPropertyOp4
 70
     1
102
RTVSPropertyOp5
 70
     1
102
RTVSPropertyOp6
 70
     1
102
RTVSPropertyOp7
 70
     1
102
RTVSPropertyOp8
 70
     1
102
RTVSPropertyOp9
 70
     1
102
RTVSPropertyOp10
 70
     1
102
RTVSPropertyOp11
 70
     1
102
RTVSPropertyOp12
 70
     1
102
RTVSPropertyOp13
 70
     1
102
RTVSPropertyOp14
 70
     1
102
RTVSPropertyOp15
 70
     1
102
RTVSPropertyOp16
 70
     1
102
RTVSPropertyOp17
 70
     1
102
RTVSPropertyOp18
 70
     1
102
RTVSPropertyOp19
 70
     1
102
RTVSPropertyOp20
 70
     1
102
RTVSPropertyOp21
 70
     1
102
RTVSPropertyOp22
 70
     1
102
RTVSPropertyOp23
 70
     1
102
RTVSPropertyOp24
 70
     1
102
RTVSPropertyOp25
 70
     1
102
RTVSPropertyOp26
 70
     1
102
RTVSPropertyOp27
 70
     1
102
RTVSPropertyOp28
 70
     1
102
RTVSPropertyOp29
 70
     1
102
RTVSPropertyOp30
 70
     1
102
RTVSPropertyOp31
 70
     1
102
RTVSPropertyOp32
 70
     1
102
RTVSPropertyOp33
 70
     1
102
RTVSPropertyOp34
 70
     1
102
RTVSPropertyOp35
 70
     1
102
RTVSPropertyOp36
 70
     1
102
RTVSPropertyOp37
 70
     1
102
RTVSPropertyOp38
 70
     1
102
RTVSPropertyOp39
 70
     1
102
RTVSPropertyOp40
 70
     1
102
RTVSPropertyOp41
 70
     1
102
RTVSPropertyOp42
 70
     1
102
RTVSPropertyOp43
 70
     1
102
RTVSPropertyOp44
 70
     1
102
RTVSPropertyOp45
 70
     1
102
RTVSPropertyOp46
 70
     1
102
RTVSPropertyOp47
 70
     1
102
RTVSPropertyOp48
 70
     1
102
RTVSPropertyOp49
 70
     1
102
RTVSPropertyOp50
 70
     1
102
RTVSPropertyOp51
 70
     0
102
RTVSPropertyOp52
 70
     0
102
RTVSPropertyOp53
 70
     1
102
RTVSPropertyOp54
 70
     1
102
RTVSPropertyOp55
 70
     1
102
RTVSPropertyOp56
 70
     1
102
RTVSPropertyOp57
 70
     1
102
RTVSPost2010Prop28
280
     0
102
RTVSPost2010PropOp28
 70
     1
102
RTVSPost2010Prop29
280
     1
102
RTVSPost2010PropOp29
 70
     1
102
RTVSPost2010Prop30
280
     1
102
RTVSPost2010PropOp30
 70
     1
102
RTVSPost2010Prop31
280
     0
102
RTVSPost2010PropOp31
 70
     1
102
RTVSPost2010Prop32
280
     0
102
RTVSPost2010PropOp32
 70
     1
102
RTVSPost2010Prop33
280
     0
102
RTVSPost2010PropOp33
 70
     1
102
RTVSPost2010Prop34
280
     0
102
RTVSPost2010PropOp34
 70
     1
102
RTVSPost2010Prop35
280
     0
102
RTVSPost2010PropOp35
 70
     1
102
RTVSPost2010Prop36
280
     0
102
RTVSPost2010PropOp36
 70
     1
102
RTVSPost2010Prop37
 90
       50
102
RTVSPost2010PropOp37
 70
     1
102
RTVSPost2010Prop38
140
0.0
102
RTVSPost2010PropOp38
 70
     1
102
RTVSPost2010Prop39
140
1.0
102
RTVSPost2010PropOp39
 70
     1
102
RTVSPost2010Prop40
 90
        0
102
RTVSPost2010PropOp40
 70
     1
102
RTVSPost2010Prop41ColorIndex
 90
       18
102
RTVSPost2010Prop41ColorRGB
 90
        0
102
RTVSPost2010PropOp41
 70
     1
102
RTVSPost2010Prop42
 90
       50
102
RTVSPost2010PropOp42
 70
     1
102
RTVSPost2010Prop43
 90
        3
102
RTVSPost2010PropOp43
 70
     1
102
RTVSPost2010Prop44ColorIndex
 90
        5
102
RTVSPost2010Prop44ColorRGB
 90
      255
102
RTVSPost2010PropOp44
 70
     1
102
RTVSPost2010Prop45
280
     0
102
RTVSPost2010PropOp45
 70
     1
102
RTVSPost2010Prop46
 90
       50
102
RTVSPost2010PropOp46
 70
     1
102
RTVSPost2010Prop47
 90
       50
102
RTVSPost2010PropOp47
 70
     1
102
RTVSPost2010Prop48
 90
       50
102
RTVSPost2010PropOp48
 70
     1
102
RTVSPost2010Prop49
280
     0
102
RTVSPost2010PropOp49
 70
     1
102
RTVSPost2010Prop50
 90
       50
102
RTVSPost2010PropOp50
 70
     1
102
RTVSPost2010Prop51ColorIndex
 90
      256
102
RTVSPost2010Prop51ColorRGB
 90
-16777216
102
RTVSPost2010PropOp51
 70
     0
102
RTVSPost2010Prop52
140
1.0
102
RTVSPost2010PropOp52
 70
     0
102
RTVSPost2010Prop53
 90
        2
102
RTVSPost2010PropOp53
 70
     1
102
RTVSPost2010Prop54
  1
strokes_ogs.tif
102
RTVSPost2010PropOp54
 70
     1
102
RTVSPost2010Prop55
280
     0
102
RTVSPost2010PropOp55
 70
     1
102
RTVSPost2010Prop56
140
1.0
102
RTVSPost2010PropOp56
 70
     1
102
RTVSPost2010Prop57
140
1.0
102
RTVSPost2010PropOp57
 70
     1
  0
XRECORD
  5
3B1
102
{ACAD_REACTORS
330
3B0
102
}
330
3B0
100
AcDbXrecord
280
     1
102
RTVSPropertyOp0
 70
     1
102
RTVSPropertyOp1
 70
     1
102
RTVSPropertyOp2
 70
     1
102
RTVSPropertyOp3
 70
     1
102
RTVSPropertyOp4
 70
     1
102
RTVSPropertyOp5
 70
     1
102
RTVSPropertyOp6
 70
     1
102
RTVSPropertyOp7
 70
     1
102
RTVSPropertyOp8
 70
     1
102
RTVSPropertyOp9
 70
     1
102
RTVSPropertyOp10
 70
     1
102
RTVSPropertyOp11
 70
     1
102
RTVSPropertyOp12
 70
     1
102
RTVSPropertyOp13
 70
     1
102
RTVSPropertyOp14
 70
     1
102
RTVSPropertyOp15
 70
     1
102
RTVSPropertyOp16
 70
     1
102
RTVSPropertyOp17
 70
     1
102
RTVSPropertyOp18
 70
     1
102
RTVSPropertyOp19
 70
     1
102
RTVSPropertyOp20
 70
     1
102
RTVSPropertyOp21
 70
     1
102
RTVSPropertyOp22
 70
     1
102
RTVSPropertyOp23
 70
     1
102
RTVSPropertyOp24
 70
     1
102
RTVSPropertyOp25
 70
     1
102
RTVSPropertyOp26
 70
     1
102
RTVSPropertyOp27
 70
     1
102
RTVSPropertyOp28
 70
     1
102
RTVSPropertyOp29
 70
     1
102
RTVSPropertyOp30
 70
     1
102
RTVSPropertyOp31
 70
     1
102
RTVSPropertyOp32
 70
     1
102
RTVSPropertyOp33
 70
     1
102
RTVSPropertyOp34
 70
     1
102
RTVSPropertyOp35
 70
     1
102
RTVSPropertyOp36
 70
     1
102
RTVSPropertyOp37
 70
     1
102
RTVSPropertyOp38
 70
     1
102
RTVSPropertyOp39
 70
     1
102
RTVSPropertyOp40
 70
     1
102
RTVSPropertyOp41
 70
     1
102
RTVSPropertyOp42
 70
     1
102
RTVSPropertyOp43
 70
     1
102
RTVSPropertyOp44
 70
     1
102
RTVSPropertyOp45
 70
     1
102
RTVSPropertyOp46
 70
     1
102
RTVSPropertyOp47
 70
     1
102
RTVSPropertyOp48
 70
     1
102
RTVSPropertyOp49
 70
     1
102
RTVSPropertyOp50
 70
     1
102
RTVSPropertyOp51
 70
     0
102
RTVSPropertyOp52
 70
     0
102
RTVSPropertyOp53
 70
     1
102
RTVSPropertyOp54
 70
     1
102
RTVSPropertyOp55
 70
     1
102
RTVSPropertyOp56
 70
     1
102
RTVSPropertyOp57
 70
     1
102
RTVSPost2010Prop28
280
     0
102
RTVSPost2010PropOp28
 70
     1
102
RTVSPost2010Prop29
280
     1
102
RTVSPost2010PropOp29
 70
     1
102
RTVSPost2010Prop30
280
     1
102
RTVSPost2010PropOp30
 70
     1
102
RTVSPost2010Prop31
280
     0
102
RTVSPost2010PropOp31
 70
     1
102
RTVSPost2010Prop32
280
     0
102
RTVSPost2010PropOp32
 70
     1
102
RTVSPost2010Prop33
280
     0
102
RTVSPost2010PropOp33
 70
     1
102
RTVSPost2010Prop34
280
     0
102
RTVSPost2010PropOp34
 70
     1
102
RTVSPost2010Prop35
280
     0
102
RTVSPost2010PropOp35
 70
     1
102
RTVSPost2010Prop36
280
     0
102
RTVSPost2010PropOp36
 70
     1
102
RTVSPost2010Prop37
 90
       50
102
RTVSPost2010PropOp37
 70
     1
102
RTVSPost2010Prop38
140
0.0
102
RTVSPost2010PropOp38
 70
     1
102
RTVSPost2010Prop39
140
1.0
102
RTVSPost2010PropOp39
 70
     1
102
RTVSPost2010Prop40
 90
        0
102
RTVSPost2010PropOp40
 70
     1
102
RTVSPost2010Prop41ColorIndex
 90
       18
102
RTVSPost2010Prop41ColorRGB
 90
        0
102
RTVSPost2010PropOp41
 70
     1
102
RTVSPost2010Prop42
 90
       50
102
RTVSPost2010PropOp42
 70
     1
102
RTVSPost2010Prop43
 90
        3
102
RTVSPost2010PropOp43
 70
     1
102
RTVSPost2010Prop44ColorIndex
 90
        5
102
RTVSPost2010Prop44ColorRGB
 90
      255
102
RTVSPost2010PropOp44
 70
     1
102
RTVSPost2010Prop45
280
     0
102
RTVSPost2010PropOp45
 70
     1
102
RTVSPost2010Prop46
 90
       50
102
RTVSPost2010PropOp46
 70
     1
102
RTVSPost2010Prop47
 90
       50
102
RTVSPost2010PropOp47
 70
     1
102
RTVSPost2010Prop48
 90
       50
102
RTVSPost2010PropOp48
 70
     1
102
RTVSPost2010Prop49
280
     0
102
RTVSPost2010PropOp49
 70
     1
102
RTVSPost2010Prop50
 90
       50
102
RTVSPost2010PropOp50
 70
     1
102
RTVSPost2010Prop51ColorIndex
 90
      256
102
RTVSPost2010Prop51ColorRGB
 90
-16777216
102
RTVSPost2010PropOp51
 70
     0
102
RTVSPost2010Prop52
140
1.0
102
RTVSPost2010PropOp52
 70
     0
102
RTVSPost2010Prop53
 90
        2
102
RTVSPost2010PropOp53
 70
     1
102
RTVSPost2010Prop54
  1
strokes_ogs.tif
102
RTVSPost2010PropOp54
 70
     1
102
RTVSPost2010Prop55
280
     0
102
RTVSPost2010PropOp55
 70
     1
102
RTVSPost2010Prop56
140
1.0
102
RTVSPost2010PropOp56
 70
     1
102
RTVSPost2010Prop57
140
1.0
102
RTVSPost2010PropOp57
 70
     1
  0
XRECORD
  5
3B9
102
{ACAD_REACTORS
330
3B8
102
}
330
3B8
100
AcDbXrecord
280
     1
102
RTVSPropertyOp0
 70
     1
102
RTVSPropertyOp1
 70
     1
102
RTVSPropertyOp2
 70
     1
102
RTVSPropertyOp3
 70
     1
102
RTVSPropertyOp4
 70
     1
102
RTVSPropertyOp5
 70
     1
102
RTVSPropertyOp6
 70
     1
102
RTVSPropertyOp7
 70
     1
102
RTVSPropertyOp8
 70
     1
102
RTVSPropertyOp9
 70
     1
102
RTVSPropertyOp10
 70
     1
102
RTVSPropertyOp11
 70
     1
102
RTVSPropertyOp12
 70
     1
102
RTVSPropertyOp13
 70
     1
102
RTVSPropertyOp14
 70
     1
102
RTVSPropertyOp15
 70
     1
102
RTVSPropertyOp16
 70
     1
102
RTVSPropertyOp17
 70
     1
102
RTVSPropertyOp18
 70
     1
102
RTVSPropertyOp19
 70
     1
102
RTVSPropertyOp20
 70
     1
102
RTVSPropertyOp21
 70
     1
102
RTVSPropertyOp22
 70
     1
102
RTVSPropertyOp23
 70
     1
102
RTVSPropertyOp24
 70
     1
102
RTVSPropertyOp25
 70
     1
102
RTVSPropertyOp26
 70
     1
102
RTVSPropertyOp27
 70
     1
102
RTVSPropertyOp28
 70
     1
102
RTVSPropertyOp29
 70
     1
102
RTVSPropertyOp30
 70
     1
102
RTVSPropertyOp31
 70
     1
102
RTVSPropertyOp32
 70
     1
102
RTVSPropertyOp33
 70
     1
102
RTVSPropertyOp34
 70
     1
102
RTVSPropertyOp35
 70
     1
102
RTVSPropertyOp36
 70
     1
102
RTVSPropertyOp37
 70
     1
102
RTVSPropertyOp38
 70
     1
102
RTVSPropertyOp39
 70
     1
102
RTVSPropertyOp40
 70
     1
102
RTVSPropertyOp41
 70
     1
102
RTVSPropertyOp42
 70
     1
102
RTVSPropertyOp43
 70
     1
102
RTVSPropertyOp44
 70
     1
102
RTVSPropertyOp45
 70
     1
102
RTVSPropertyOp46
 70
     1
102
RTVSPropertyOp47
 70
     1
102
RTVSPropertyOp48
 70
     1
102
RTVSPropertyOp49
 70
     1
102
RTVSPropertyOp50
 70
     1
102
RTVSPropertyOp51
 70
     0
102
RTVSPropertyOp52
 70
     0
102
RTVSPropertyOp53
 70
     1
102
RTVSPropertyOp54
 70
     1
102
RTVSPropertyOp55
 70
     1
102
RTVSPropertyOp56
 70
     1
102
RTVSPropertyOp57
 70
     1
102
RTVSPost2010Prop28
280
     0
102
RTVSPost2010PropOp28
 70
     1
102
RTVSPost2010Prop29
280
     1
102
RTVSPost2010PropOp29
 70
     1
102
RTVSPost2010Prop30
280
     1
102
RTVSPost2010PropOp30
 70
     1
102
RTVSPost2010Prop31
280
     0
102
RTVSPost2010PropOp31
 70
     1
102
RTVSPost2010Prop32
280
     0
102
RTVSPost2010PropOp32
 70
     1
102
RTVSPost2010Prop33
280
     0
102
RTVSPost2010PropOp33
 70
     1
102
RTVSPost2010Prop34
280
     0
102
RTVSPost2010PropOp34
 70
     1
102
RTVSPost2010Prop35
280
     0
102
RTVSPost2010PropOp35
 70
     1
102
RTVSPost2010Prop36
280
     0
102
RTVSPost2010PropOp36
 70
     1
102
RTVSPost2010Prop37
 90
       50
102
RTVSPost2010PropOp37
 70
     1
102
RTVSPost2010Prop38
140
0.0
102
RTVSPost2010PropOp38
 70
     1
102
RTVSPost2010Prop39
140
1.0
102
RTVSPost2010PropOp39
 70
     1
102
RTVSPost2010Prop40
 90
        0
102
RTVSPost2010PropOp40
 70
     1
102
RTVSPost2010Prop41ColorIndex
 90
       18
102
RTVSPost2010Prop41ColorRGB
 90
        0
102
RTVSPost2010PropOp41
 70
     1
102
RTVSPost2010Prop42
 90
       50
102
RTVSPost2010PropOp42
 70
     1
102
RTVSPost2010Prop43
 90
        3
102
RTVSPost2010PropOp43
 70
     1
102
RTVSPost2010Prop44ColorIndex
 90
        5
102
RTVSPost2010Prop44ColorRGB
 90
      255
102
RTVSPost2010PropOp44
 70
     1
102
RTVSPost2010Prop45
280
     0
102
RTVSPost2010PropOp45
 70
     1
102
RTVSPost2010Prop46
 90
       50
102
RTVSPost2010PropOp46
 70
     1
102
RTVSPost2010Prop47
 90
       50
102
RTVSPost2010PropOp47
 70
     1
102
RTVSPost2010Prop48
 90
       50
102
RTVSPost2010PropOp48
 70
     1
102
RTVSPost2010Prop49
280
     0
102
RTVSPost2010PropOp49
 70
     1
102
RTVSPost2010Prop50
 90
       50
102
RTVSPost2010PropOp50
 70
     1
102
RTVSPost2010Prop51ColorIndex
 90
      256
102
RTVSPost2010Prop51ColorRGB
 90
-16777216
102
RTVSPost2010PropOp51
 70
     0
102
RTVSPost2010Prop52
140
1.0
102
RTVSPost2010PropOp52
 70
     0
102
RTVSPost2010Prop53
 90
        2
102
RTVSPost2010PropOp53
 70
     1
102
RTVSPost2010Prop54
  1
strokes_ogs.tif
102
RTVSPost2010PropOp54
 70
     1
102
RTVSPost2010Prop55
280
     0
102
RTVSPost2010PropOp55
 70
     1
102
RTVSPost2010Prop56
140
1.0
102
RTVSPost2010PropOp56
 70
     1
102
RTVSPost2010Prop57
140
1.0
102
RTVSPost2010PropOp57
 70
     1
  0
XRECORD
  5
3AD
102
{ACAD_REACTORS
330
3AC
102
}
330
3AC
100
AcDbXrecord
280
     1
102
RTVSPropertyOp0
 70
     1
102
RTVSPropertyOp1
 70
     1
102
RTVSPropertyOp2
 70
     1
102
RTVSPropertyOp3
 70
     1
102
RTVSPropertyOp4
 70
     1
102
RTVSPropertyOp5
 70
     1
102
RTVSPropertyOp6
 70
     1
102
RTVSPropertyOp7
 70
     1
102
RTVSPropertyOp8
 70
     1
102
RTVSPropertyOp9
 70
     1
102
RTVSPropertyOp10
 70
     1
102
RTVSPropertyOp11
 70
     1
102
RTVSPropertyOp12
 70
     1
102
RTVSPropertyOp13
 70
     1
102
RTVSPropertyOp14
 70
     1
102
RTVSPropertyOp15
 70
     1
102
RTVSPropertyOp16
 70
     1
102
RTVSPropertyOp17
 70
     1
102
RTVSPropertyOp18
 70
     1
102
RTVSPropertyOp19
 70
     1
102
RTVSPropertyOp20
 70
     1
102
RTVSPropertyOp21
 70
     1
102
RTVSPropertyOp22
 70
     1
102
RTVSPropertyOp23
 70
     1
102
RTVSPropertyOp24
 70
     1
102
RTVSPropertyOp25
 70
     1
102
RTVSPropertyOp26
 70
     1
102
RTVSPropertyOp27
 70
     1
102
RTVSPropertyOp28
 70
     1
102
RTVSPropertyOp29
 70
     1
102
RTVSPropertyOp30
 70
     1
102
RTVSPropertyOp31
 70
     1
102
RTVSPropertyOp32
 70
     1
102
RTVSPropertyOp33
 70
     1
102
RTVSPropertyOp34
 70
     1
102
RTVSPropertyOp35
 70
     1
102
RTVSPropertyOp36
 70
     1
102
RTVSPropertyOp37
 70
     1
102
RTVSPropertyOp38
 70
     1
102
RTVSPropertyOp39
 70
     1
102
RTVSPropertyOp40
 70
     1
102
RTVSPropertyOp41
 70
     1
102
RTVSPropertyOp42
 70
     1
102
RTVSPropertyOp43
 70
     1
102
RTVSPropertyOp44
 70
     1
102
RTVSPropertyOp45
 70
     1
102
RTVSPropertyOp46
 70
     1
102
RTVSPropertyOp47
 70
     1
102
RTVSPropertyOp48
 70
     1
102
RTVSPropertyOp49
 70
     1
102
RTVSPropertyOp50
 70
     1
102
RTVSPropertyOp51
 70
     0
102
RTVSPropertyOp52
 70
     0
102
RTVSPropertyOp53
 70
     1
102
RTVSPropertyOp54
 70
     1
102
RTVSPropertyOp55
 70
     1
102
RTVSPropertyOp56
 70
     1
102
RTVSPropertyOp57
 70
     1
102
RTVSPost2010Prop28
280
     0
102
RTVSPost2010PropOp28
 70
     1
102
RTVSPost2010Prop29
280
     1
102
RTVSPost2010PropOp29
 70
     1
102
RTVSPost2010Prop30
280
     1
102
RTVSPost2010PropOp30
 70
     1
102
RTVSPost2010Prop31
280
     0
102
RTVSPost2010PropOp31
 70
     1
102
RTVSPost2010Prop32
280
     0
102
RTVSPost2010PropOp32
 70
     1
102
RTVSPost2010Prop33
280
     0
102
RTVSPost2010PropOp33
 70
     1
102
RTVSPost2010Prop34
280
     0
102
RTVSPost2010PropOp34
 70
     1
102
RTVSPost2010Prop35
280
     0
102
RTVSPost2010PropOp35
 70
     1
102
RTVSPost2010Prop36
280
     0
102
RTVSPost2010PropOp36
 70
     1
102
RTVSPost2010Prop37
 90
       50
102
RTVSPost2010PropOp37
 70
     1
102
RTVSPost2010Prop38
140
0.0
102
RTVSPost2010PropOp38
 70
     1
102
RTVSPost2010Prop39
140
1.0
102
RTVSPost2010PropOp39
 70
     1
102
RTVSPost2010Prop40
 90
        0
102
RTVSPost2010PropOp40
 70
     1
102
RTVSPost2010Prop41ColorIndex
 90
       18
102
RTVSPost2010Prop41ColorRGB
 90
        0
102
RTVSPost2010PropOp41
 70
     1
102
RTVSPost2010Prop42
 90
       50
102
RTVSPost2010PropOp42
 70
     1
102
RTVSPost2010Prop43
 90
        3
102
RTVSPost2010PropOp43
 70
     1
102
RTVSPost2010Prop44ColorIndex
 90
        5
102
RTVSPost2010Prop44ColorRGB
 90
      255
102
RTVSPost2010PropOp44
 70
     1
102
RTVSPost2010Prop45
280
     0
102
RTVSPost2010PropOp45
 70
     1
102
RTVSPost2010Prop46
 90
       50
102
RTVSPost2010PropOp46
 70
     1
102
RTVSPost2010Prop47
 90
       50
102
RTVSPost2010PropOp47
 70
     1
102
RTVSPost2010Prop48
 90
       50
102
RTVSPost2010PropOp48
 70
     1
102
RTVSPost2010Prop49
280
     0
102
RTVSPost2010PropOp49
 70
     1
102
RTVSPost2010Prop50
 90
       50
102
RTVSPost2010PropOp50
 70
     1
102
RTVSPost2010Prop51ColorIndex
 90
      256
102
RTVSPost2010Prop51ColorRGB
 90
-16777216
102
RTVSPost2010PropOp51
 70
     0
102
RTVSPost2010Prop52
140
1.0
102
RTVSPost2010PropOp52
 70
     0
102
RTVSPost2010Prop53
 90
        2
102
RTVSPost2010PropOp53
 70
     1
102
RTVSPost2010Prop54
  1
strokes_ogs.tif
102
RTVSPost2010PropOp54
 70
     1
102
RTVSPost2010Prop55
280
     0
102
RTVSPost2010PropOp55
 70
     1
102
RTVSPost2010Prop56
140
1.0
102
RTVSPost2010PropOp56
 70
     1
102
RTVSPost2010Prop57
140
1.0
102
RTVSPost2010PropOp57
 70
     1
  0
XRECORD
  5
3AF
102
{ACAD_REACTORS
330
3AE
102
}
330
3AE
100
AcDbXrecord
280
     1
102
RTVSPropertyOp0
 70
     1
102
RTVSPropertyOp1
 70
     1
102
RTVSPropertyOp2
 70
     1
102
RTVSPropertyOp3
 70
     1
102
RTVSPropertyOp4
 70
     1
102
RTVSPropertyOp5
 70
     1
102
RTVSPropertyOp6
 70
     1
102
RTVSPropertyOp7
 70
     1
102
RTVSPropertyOp8
 70
     1
102
RTVSPropertyOp9
 70
     1
102
RTVSPropertyOp10
 70
     1
102
RTVSPropertyOp11
 70
     1
102
RTVSPropertyOp12
 70
     1
102
RTVSPropertyOp13
 70
     1
102
RTVSPropertyOp14
 70
     1
102
RTVSPropertyOp15
 70
     1
102
RTVSPropertyOp16
 70
     1
102
RTVSPropertyOp17
 70
     1
102
RTVSPropertyOp18
 70
     1
102
RTVSPropertyOp19
 70
     1
102
RTVSPropertyOp20
 70
     1
102
RTVSPropertyOp21
 70
     1
102
RTVSPropertyOp22
 70
     1
102
RTVSPropertyOp23
 70
     1
102
RTVSPropertyOp24
 70
     1
102
RTVSPropertyOp25
 70
     1
102
RTVSPropertyOp26
 70
     1
102
RTVSPropertyOp27
 70
     1
102
RTVSPropertyOp28
 70
     1
102
RTVSPropertyOp29
 70
     1
102
RTVSPropertyOp30
 70
     1
102
RTVSPropertyOp31
 70
     1
102
RTVSPropertyOp32
 70
     1
102
RTVSPropertyOp33
 70
     1
102
RTVSPropertyOp34
 70
     1
102
RTVSPropertyOp35
 70
     1
102
RTVSPropertyOp36
 70
     1
102
RTVSPropertyOp37
 70
     1
102
RTVSPropertyOp38
 70
     1
102
RTVSPropertyOp39
 70
     1
102
RTVSPropertyOp40
 70
     1
102
RTVSPropertyOp41
 70
     1
102
RTVSPropertyOp42
 70
     1
102
RTVSPropertyOp43
 70
     1
102
RTVSPropertyOp44
 70
     1
102
RTVSPropertyOp45
 70
     1
102
RTVSPropertyOp46
 70
     1
102
RTVSPropertyOp47
 70
     1
102
RTVSPropertyOp48
 70
     1
102
RTVSPropertyOp49
 70
     1
102
RTVSPropertyOp50
 70
     1
102
RTVSPropertyOp51
 70
     0
102
RTVSPropertyOp52
 70
     0
102
RTVSPropertyOp53
 70
     1
102
RTVSPropertyOp54
 70
     1
102
RTVSPropertyOp55
 70
     1
102
RTVSPropertyOp56
 70
     1
102
RTVSPropertyOp57
 70
     1
102
RTVSPost2010Prop28
280
     0
102
RTVSPost2010PropOp28
 70
     1
102
RTVSPost2010Prop29
280
     1
102
RTVSPost2010PropOp29
 70
     1
102
RTVSPost2010Prop30
280
     1
102
RTVSPost2010PropOp30
 70
     1
102
RTVSPost2010Prop31
280
     0
102
RTVSPost2010PropOp31
 70
     1
102
RTVSPost2010Prop32
280
     0
102
RTVSPost2010PropOp32
 70
     1
102
RTVSPost2010Prop33
280
     0
102
RTVSPost2010PropOp33
 70
     1
102
RTVSPost2010Prop34
280
     0
102
RTVSPost2010PropOp34
 70
     1
102
RTVSPost2010Prop35
280
     0
102
RTVSPost2010PropOp35
 70
     1
102
RTVSPost2010Prop36
280
     0
102
RTVSPost2010PropOp36
 70
     1
102
RTVSPost2010Prop37
 90
       50
102
RTVSPost2010PropOp37
 70
     1
102
RTVSPost2010Prop38
140
0.0
102
RTVSPost2010PropOp38
 70
     1
102
RTVSPost2010Prop39
140
1.0
102
RTVSPost2010PropOp39
 70
     1
102
RTVSPost2010Prop40
 90
        0
102
RTVSPost2010PropOp40
 70
     1
102
RTVSPost2010Prop41ColorIndex
 90
       18
102
RTVSPost2010Prop41ColorRGB
 90
        0
102
RTVSPost2010PropOp41
 70
     1
102
RTVSPost2010Prop42
 90
       50
102
RTVSPost2010PropOp42
 70
     1
102
RTVSPost2010Prop43
 90
        3
102
RTVSPost2010PropOp43
 70
     1
102
RTVSPost2010Prop44ColorIndex
 90
        5
102
RTVSPost2010Prop44ColorRGB
 90
      255
102
RTVSPost2010PropOp44
 70
     1
102
RTVSPost2010Prop45
280
     0
102
RTVSPost2010PropOp45
 70
     1
102
RTVSPost2010Prop46
 90
       50
102
RTVSPost2010PropOp46
 70
     1
102
RTVSPost2010Prop47
 90
       50
102
RTVSPost2010PropOp47
 70
     1
102
RTVSPost2010Prop48
 90
       50
102
RTVSPost2010PropOp48
 70
     1
102
RTVSPost2010Prop49
280
     0
102
RTVSPost2010PropOp49
 70
     1
102
RTVSPost2010Prop50
 90
       50
102
RTVSPost2010PropOp50
 70
     1
102
RTVSPost2010Prop51ColorIndex
 90
      256
102
RTVSPost2010Prop51ColorRGB
 90
-16777216
102
RTVSPost2010PropOp51
 70
     0
102
RTVSPost2010Prop52
140
1.0
102
RTVSPost2010PropOp52
 70
     0
102
RTVSPost2010Prop53
 90
        2
102
RTVSPost2010PropOp53
 70
     1
102
RTVSPost2010Prop54
  1
strokes_ogs.tif
102
RTVSPost2010PropOp54
 70
     1
102
RTVSPost2010Prop55
280
     0
102
RTVSPost2010PropOp55
 70
     1
102
RTVSPost2010Prop56
140
1.0
102
RTVSPost2010PropOp56
 70
     1
102
RTVSPost2010Prop57
140
1.0
102
RTVSPost2010PropOp57
 70
     1
  0
XRECORD
  5
3BF
102
{ACAD_REACTORS
330
3BE
102
}
330
3BE
100
AcDbXrecord
280
     1
102
RTVSPropertyOp0
 70
     0
102
RTVSPropertyOp1
 70
     0
102
RTVSPropertyOp2
 70
     0
102
RTVSPropertyOp3
 70
     0
102
RTVSPropertyOp4
 70
     0
102
RTVSPropertyOp5
 70
     0
102
RTVSPropertyOp6
 70
     0
102
RTVSPropertyOp7
 70
     0
102
RTVSPropertyOp8
 70
     0
102
RTVSPropertyOp9
 70
     0
102
RTVSPropertyOp10
 70
     0
102
RTVSPropertyOp11
 70
     0
102
RTVSPropertyOp12
 70
     0
102
RTVSPropertyOp13
 70
     0
102
RTVSPropertyOp14
 70
     2
102
RTVSPropertyOp15
 70
     0
102
RTVSPropertyOp16
 70
     0
102
RTVSPropertyOp17
 70
     0
102
RTVSPropertyOp18
 70
     0
102
RTVSPropertyOp19
 70
     0
102
RTVSPropertyOp20
 70
     0
102
RTVSPropertyOp21
 70
     0
102
RTVSPropertyOp22
 70
     0
102
RTVSPropertyOp23
 70
     0
102
RTVSPropertyOp24
 70
     0
102
RTVSPropertyOp25
 70
     0
102
RTVSPropertyOp26
 70
     0
102
RTVSPropertyOp27
 70
     0
102
RTVSPropertyOp28
 70
     0
102
RTVSPropertyOp29
 70
     0
102
RTVSPropertyOp30
 70
     0
102
RTVSPropertyOp31
 70
     0
102
RTVSPropertyOp32
 70
     0
102
RTVSPropertyOp33
 70
     0
102
RTVSPropertyOp34
 70
     0
102
RTVSPropertyOp35
 70
     0
102
RTVSPropertyOp36
 70
     0
102
RTVSPropertyOp37
 70
     0
102
RTVSPropertyOp38
 70
     0
102
RTVSPropertyOp39
 70
     0
102
RTVSPropertyOp40
 70
     0
102
RTVSPropertyOp41
 70
     0
102
RTVSPropertyOp42
 70
     0
102
RTVSPropertyOp43
 70
     0
102
RTVSPropertyOp44
 70
     0
102
RTVSPropertyOp45
 70
     0
102
RTVSPropertyOp46
 70
     0
102
RTVSPropertyOp47
 70
     0
102
RTVSPropertyOp48
 70
     0
102
RTVSPropertyOp49
 70
     0
102
RTVSPropertyOp50
 70
     0
102
RTVSPropertyOp51
 70
     0
102
RTVSPropertyOp52
 70
     0
102
RTVSPropertyOp53
 70
     0
102
RTVSPropertyOp54
 70
     0
102
RTVSPropertyOp55
 70
     0
102
RTVSPropertyOp56
 70
     0
102
RTVSPropertyOp57
 70
     0
102
RTVSPost2010Prop28
280
     0
102
RTVSPost2010PropOp28
 70
     0
102
RTVSPost2010Prop29
280
     1
102
RTVSPost2010PropOp29
 70
     0
102
RTVSPost2010Prop30
280
     1
102
RTVSPost2010PropOp30
 70
     0
102
RTVSPost2010Prop31
280
     0
102
RTVSPost2010PropOp31
 70
     0
102
RTVSPost2010Prop32
280
     0
102
RTVSPost2010PropOp32
 70
     0
102
RTVSPost2010Prop33
280
     0
102
RTVSPost2010PropOp33
 70
     0
102
RTVSPost2010Prop34
280
     0
102
RTVSPost2010PropOp34
 70
     0
102
RTVSPost2010Prop35
280
     0
102
RTVSPost2010PropOp35
 70
     0
102
RTVSPost2010Prop36
280
     0
102
RTVSPost2010PropOp36
 70
     0
102
RTVSPost2010Prop37
 90
       50
102
RTVSPost2010PropOp37
 70
     0
102
RTVSPost2010Prop38
140
0.0
102
RTVSPost2010PropOp38
 70
     0
102
RTVSPost2010Prop39
140
1.0
102
RTVSPost2010PropOp39
 70
     0
102
RTVSPost2010Prop40
 90
        0
102
RTVSPost2010PropOp40
 70
     0
102
RTVSPost2010Prop41ColorIndex
 90
       18
102
RTVSPost2010Prop41ColorRGB
 90
        0
102
RTVSPost2010PropOp41
 70
     0
102
RTVSPost2010Prop42
 90
       50
102
RTVSPost2010PropOp42
 70
     0
102
RTVSPost2010Prop43
 90
        3
102
RTVSPost2010PropOp43
 70
     0
102
RTVSPost2010Prop44ColorIndex
 90
        5
102
RTVSPost2010Prop44ColorRGB
 90
      255
102
RTVSPost2010PropOp44
 70
     0
102
RTVSPost2010Prop45
280
     0
102
RTVSPost2010PropOp45
 70
     0
102
RTVSPost2010Prop46
 90
       50
102
RTVSPost2010PropOp46
 70
     0
102
RTVSPost2010Prop47
 90
       50
102
RTVSPost2010PropOp47
 70
     0
102
RTVSPost2010Prop48
 90
       50
102
RTVSPost2010PropOp48
 70
     0
102
RTVSPost2010Prop49
280
     0
102
RTVSPost2010PropOp49
 70
     0
102
RTVSPost2010Prop50
 90
       50
102
RTVSPost2010PropOp50
 70
     0
102
RTVSPost2010Prop51ColorIndex
 90
      256
102
RTVSPost2010Prop51ColorRGB
 90
-16777216
102
RTVSPost2010PropOp51
 70
     0
102
RTVSPost2010Prop52
140
1.0
102
RTVSPost2010PropOp52
 70
     0
102
RTVSPost2010Prop53
 90
        2
102
RTVSPost2010PropOp53
 70
     0
102
RTVSPost2010Prop54
  1
strokes_ogs.tif
102
RTVSPost2010PropOp54
 70
     0
102
RTVSPost2010Prop55
280
     0
102
RTVSPost2010PropOp55
 70
     0
102
RTVSPost2010Prop56
140
1.0
102
RTVSPost2010PropOp56
 70
     0
102
RTVSPost2010Prop57
140
1.0
102
RTVSPost2010PropOp57
 70
     0
  0
XRECORD
  5
3B7
102
{ACAD_REACTORS
330
3B6
102
}
330
3B6
100
AcDbXrecord
280
     1
102
RTVSPropertyOp0
 70
     1
102
RTVSPropertyOp1
 70
     1
102
RTVSPropertyOp2
 70
     1
102
RTVSPropertyOp3
 70
     1
102
RTVSPropertyOp4
 70
     1
102
RTVSPropertyOp5
 70
     1
102
RTVSPropertyOp6
 70
     1
102
RTVSPropertyOp7
 70
     1
102
RTVSPropertyOp8
 70
     1
102
RTVSPropertyOp9
 70
     1
102
RTVSPropertyOp10
 70
     1
102
RTVSPropertyOp11
 70
     1
102
RTVSPropertyOp12
 70
     1
102
RTVSPropertyOp13
 70
     1
102
RTVSPropertyOp14
 70
     1
102
RTVSPropertyOp15
 70
     1
102
RTVSPropertyOp16
 70
     1
102
RTVSPropertyOp17
 70
     1
102
RTVSPropertyOp18
 70
     1
102
RTVSPropertyOp19
 70
     1
102
RTVSPropertyOp20
 70
     1
102
RTVSPropertyOp21
 70
     1
102
RTVSPropertyOp22
 70
     1
102
RTVSPropertyOp23
 70
     1
102
RTVSPropertyOp24
 70
     1
102
RTVSPropertyOp25
 70
     1
102
RTVSPropertyOp26
 70
     1
102
RTVSPropertyOp27
 70
     1
102
RTVSPropertyOp28
 70
     1
102
RTVSPropertyOp29
 70
     1
102
RTVSPropertyOp30
 70
     1
102
RTVSPropertyOp31
 70
     1
102
RTVSPropertyOp32
 70
     1
102
RTVSPropertyOp33
 70
     1
102
RTVSPropertyOp34
 70
     1
102
RTVSPropertyOp35
 70
     1
102
RTVSPropertyOp36
 70
     1
102
RTVSPropertyOp37
 70
     1
102
RTVSPropertyOp38
 70
     1
102
RTVSPropertyOp39
 70
     1
102
RTVSPropertyOp40
 70
     1
102
RTVSPropertyOp41
 70
     1
102
RTVSPropertyOp42
 70
     1
102
RTVSPropertyOp43
 70
     1
102
RTVSPropertyOp44
 70
     1
102
RTVSPropertyOp45
 70
     1
102
RTVSPropertyOp46
 70
     1
102
RTVSPropertyOp47
 70
     1
102
RTVSPropertyOp48
 70
     1
102
RTVSPropertyOp49
 70
     1
102
RTVSPropertyOp50
 70
     1
102
RTVSPropertyOp51
 70
     0
102
RTVSPropertyOp52
 70
     0
102
RTVSPropertyOp53
 70
     1
102
RTVSPropertyOp54
 70
     1
102
RTVSPropertyOp55
 70
     1
102
RTVSPropertyOp56
 70
     1
102
RTVSPropertyOp57
 70
     1
102
RTVSPost2010Prop28
280
     0
102
RTVSPost2010PropOp28
 70
     1
102
RTVSPost2010Prop29
280
     1
102
RTVSPost2010PropOp29
 70
     1
102
RTVSPost2010Prop30
280
     1
102
RTVSPost2010PropOp30
 70
     1
102
RTVSPost2010Prop31
280
     0
102
RTVSPost2010PropOp31
 70
     1
102
RTVSPost2010Prop32
280
     0
102
RTVSPost2010PropOp32
 70
     1
102
RTVSPost2010Prop33
280
     0
102
RTVSPost2010PropOp33
 70
     1
102
RTVSPost2010Prop34
280
     0
102
RTVSPost2010PropOp34
 70
     1
102
RTVSPost2010Prop35
280
     0
102
RTVSPost2010PropOp35
 70
     1
102
RTVSPost2010Prop36
280
     0
102
RTVSPost2010PropOp36
 70
     1
102
RTVSPost2010Prop37
 90
       50
102
RTVSPost2010PropOp37
 70
     1
102
RTVSPost2010Prop38
140
0.0
102
RTVSPost2010PropOp38
 70
     1
102
RTVSPost2010Prop39
140
1.0
102
RTVSPost2010PropOp39
 70
     1
102
RTVSPost2010Prop40
 90
        0
102
RTVSPost2010PropOp40
 70
     1
102
RTVSPost2010Prop41ColorIndex
 90
       18
102
RTVSPost2010Prop41ColorRGB
 90
        0
102
RTVSPost2010PropOp41
 70
     1
102
RTVSPost2010Prop42
 90
       50
102
RTVSPost2010PropOp42
 70
     1
102
RTVSPost2010Prop43
 90
        3
102
RTVSPost2010PropOp43
 70
     1
102
RTVSPost2010Prop44ColorIndex
 90
        5
102
RTVSPost2010Prop44ColorRGB
 90
      255
102
RTVSPost2010PropOp44
 70
     1
102
RTVSPost2010Prop45
280
     0
102
RTVSPost2010PropOp45
 70
     1
102
RTVSPost2010Prop46
 90
       50
102
RTVSPost2010PropOp46
 70
     1
102
RTVSPost2010Prop47
 90
       50
102
RTVSPost2010PropOp47
 70
     1
102
RTVSPost2010Prop48
 90
       50
102
RTVSPost2010PropOp48
 70
     1
102
RTVSPost2010Prop49
280
     0
102
RTVSPost2010PropOp49
 70
     1
102
RTVSPost2010Prop50
 90
       50
102
RTVSPost2010PropOp50
 70
     1
102
RTVSPost2010Prop51ColorIndex
 90
      256
102
RTVSPost2010Prop51ColorRGB
 90
-16777216
102
RTVSPost2010PropOp51
 70
     0
102
RTVSPost2010Prop52
140
1.0
102
RTVSPost2010PropOp52
 70
     0
102
RTVSPost2010Prop53
 90
        2
102
RTVSPost2010PropOp53
 70
     1
102
RTVSPost2010Prop54
  1
strokes_ogs.tif
102
RTVSPost2010PropOp54
 70
     1
102
RTVSPost2010Prop55
280
     0
102
RTVSPost2010PropOp55
 70
     1
102
RTVSPost2010Prop56
140
1.0
102
RTVSPost2010PropOp56
 70
     1
102
RTVSPost2010Prop57
140
1.0
102
RTVSPost2010PropOp57
 70
     1
  0
XRECORD
  5
39B
102
{ACAD_REACTORS
330
39A
102
}
330
39A
100
AcDbXrecord
280
     1
102
RTVSPropertyOp0
 70
     1
102
RTVSPropertyOp1
 70
     1
102
RTVSPropertyOp2
 70
     1
102
RTVSPropertyOp3
 70
     1
102
RTVSPropertyOp4
 70
     1
102
RTVSPropertyOp5
 70
     1
102
RTVSPropertyOp6
 70
     1
102
RTVSPropertyOp7
 70
     1
102
RTVSPropertyOp8
 70
     1
102
RTVSPropertyOp9
 70
     1
102
RTVSPropertyOp10
 70
     1
102
RTVSPropertyOp11
 70
     1
102
RTVSPropertyOp12
 70
     1
102
RTVSPropertyOp13
 70
     1
102
RTVSPropertyOp14
 70
     1
102
RTVSPropertyOp15
 70
     1
102
RTVSPropertyOp16
 70
     1
102
RTVSPropertyOp17
 70
     1
102
RTVSPropertyOp18
 70
     1
102
RTVSPropertyOp19
 70
     1
102
RTVSPropertyOp20
 70
     1
102
RTVSPropertyOp21
 70
     1
102
RTVSPropertyOp22
 70
     1
102
RTVSPropertyOp23
 70
     1
102
RTVSPropertyOp24
 70
     1
102
RTVSPropertyOp25
 70
     1
102
RTVSPropertyOp26
 70
     1
102
RTVSPropertyOp27
 70
     1
102
RTVSPropertyOp28
 70
     1
102
RTVSPropertyOp29
 70
     1
102
RTVSPropertyOp30
 70
     1
102
RTVSPropertyOp31
 70
     1
102
RTVSPropertyOp32
 70
     1
102
RTVSPropertyOp33
 70
     1
102
RTVSPropertyOp34
 70
     1
102
RTVSPropertyOp35
 70
     1
102
RTVSPropertyOp36
 70
     1
102
RTVSPropertyOp37
 70
     1
102
RTVSPropertyOp38
 70
     1
102
RTVSPropertyOp39
 70
     1
102
RTVSPropertyOp40
 70
     1
102
RTVSPropertyOp41
 70
     1
102
RTVSPropertyOp42
 70
     1
102
RTVSPropertyOp43
 70
     1
102
RTVSPropertyOp44
 70
     1
102
RTVSPropertyOp45
 70
     1
102
RTVSPropertyOp46
 70
     1
102
RTVSPropertyOp47
 70
     1
102
RTVSPropertyOp48
 70
     1
102
RTVSPropertyOp49
 70
     1
102
RTVSPropertyOp50
 70
     1
102
RTVSPropertyOp51
 70
     0
102
RTVSPropertyOp52
 70
     0
102
RTVSPropertyOp53
 70
     1
102
RTVSPropertyOp54
 70
     1
102
RTVSPropertyOp55
 70
     1
102
RTVSPropertyOp56
 70
     1
102
RTVSPropertyOp57
 70
     1
102
RTVSPost2010Prop28
280
     0
102
RTVSPost2010PropOp28
 70
     1
102
RTVSPost2010Prop29
280
     1
102
RTVSPost2010PropOp29
 70
     1
102
RTVSPost2010Prop30
280
     1
102
RTVSPost2010PropOp30
 70
     1
102
RTVSPost2010Prop31
280
     0
102
RTVSPost2010PropOp31
 70
     1
102
RTVSPost2010Prop32
280
     0
102
RTVSPost2010PropOp32
 70
     1
102
RTVSPost2010Prop33
280
     0
102
RTVSPost2010PropOp33
 70
     1
102
RTVSPost2010Prop34
280
     0
102
RTVSPost2010PropOp34
 70
     1
102
RTVSPost2010Prop35
280
     0
102
RTVSPost2010PropOp35
 70
     1
102
RTVSPost2010Prop36
280
     0
102
RTVSPost2010PropOp36
 70
     1
102
RTVSPost2010Prop37
 90
       50
102
RTVSPost2010PropOp37
 70
     1
102
RTVSPost2010Prop38
140
0.0
102
RTVSPost2010PropOp38
 70
     1
102
RTVSPost2010Prop39
140
1.0
102
RTVSPost2010PropOp39
 70
     1
102
RTVSPost2010Prop40
 90
        0
102
RTVSPost2010PropOp40
 70
     1
102
RTVSPost2010Prop41ColorIndex
 90
       18
102
RTVSPost2010Prop41ColorRGB
 90
        0
102
RTVSPost2010PropOp41
 70
     1
102
RTVSPost2010Prop42
 90
       50
102
RTVSPost2010PropOp42
 70
     1
102
RTVSPost2010Prop43
 90
        3
102
RTVSPost2010PropOp43
 70
     1
102
RTVSPost2010Prop44ColorIndex
 90
        5
102
RTVSPost2010Prop44ColorRGB
 90
      255
102
RTVSPost2010PropOp44
 70
     1
102
RTVSPost2010Prop45
280
     0
102
RTVSPost2010PropOp45
 70
     1
102
RTVSPost2010Prop46
 90
       50
102
RTVSPost2010PropOp46
 70
     1
102
RTVSPost2010Prop47
 90
       50
102
RTVSPost2010PropOp47
 70
     1
102
RTVSPost2010Prop48
 90
       50
102
RTVSPost2010PropOp48
 70
     1
102
RTVSPost2010Prop49
280
     0
102
RTVSPost2010PropOp49
 70
     1
102
RTVSPost2010Prop50
 90
       50
102
RTVSPost2010PropOp50
 70
     1
102
RTVSPost2010Prop51ColorIndex
 90
      256
102
RTVSPost2010Prop51ColorRGB
 90
-16777216
102
RTVSPost2010PropOp51
 70
     0
102
RTVSPost2010Prop52
140
1.0
102
RTVSPost2010PropOp52
 70
     0
102
RTVSPost2010Prop53
 90
        2
102
RTVSPost2010PropOp53
 70
     1
102
RTVSPost2010Prop54
  1
strokes_ogs.tif
102
RTVSPost2010PropOp54
 70
     1
102
RTVSPost2010Prop55
280
     0
102
RTVSPost2010PropOp55
 70
     1
102
RTVSPost2010Prop56
140
1.0
102
RTVSPost2010PropOp56
 70
     1
102
RTVSPost2010Prop57
140
1.0
102
RTVSPost2010PropOp57
 70
     1
  0
XRECORD
  5
39D
102
{ACAD_REACTORS
330
39C
102
}
330
39C
100
AcDbXrecord
280
     1
102
RTVSPropertyOp0
 70
     1
102
RTVSPropertyOp1
 70
     1
102
RTVSPropertyOp2
 70
     1
102
RTVSPropertyOp3
 70
     1
102
RTVSPropertyOp4
 70
     1
102
RTVSPropertyOp5
 70
     1
102
RTVSPropertyOp6
 70
     1
102
RTVSPropertyOp7
 70
     1
102
RTVSPropertyOp8
 70
     1
102
RTVSPropertyOp9
 70
     1
102
RTVSPropertyOp10
 70
     1
102
RTVSPropertyOp11
 70
     1
102
RTVSPropertyOp12
 70
     1
102
RTVSPropertyOp13
 70
     1
102
RTVSPropertyOp14
 70
     1
102
RTVSPropertyOp15
 70
     1
102
RTVSPropertyOp16
 70
     1
102
RTVSPropertyOp17
 70
     1
102
RTVSPropertyOp18
 70
     1
102
RTVSPropertyOp19
 70
     1
102
RTVSPropertyOp20
 70
     1
102
RTVSPropertyOp21
 70
     1
102
RTVSPropertyOp22
 70
     1
102
RTVSPropertyOp23
 70
     1
102
RTVSPropertyOp24
 70
     1
102
RTVSPropertyOp25
 70
     1
102
RTVSPropertyOp26
 70
     1
102
RTVSPropertyOp27
 70
     1
102
RTVSPropertyOp28
 70
     1
102
RTVSPropertyOp29
 70
     1
102
RTVSPropertyOp30
 70
     1
102
RTVSPropertyOp31
 70
     1
102
RTVSPropertyOp32
 70
     1
102
RTVSPropertyOp33
 70
     1
102
RTVSPropertyOp34
 70
     1
102
RTVSPropertyOp35
 70
     1
102
RTVSPropertyOp36
 70
     1
102
RTVSPropertyOp37
 70
     1
102
RTVSPropertyOp38
 70
     1
102
RTVSPropertyOp39
 70
     1
102
RTVSPropertyOp40
 70
     1
102
RTVSPropertyOp41
 70
     1
102
RTVSPropertyOp42
 70
     1
102
RTVSPropertyOp43
 70
     1
102
RTVSPropertyOp44
 70
     1
102
RTVSPropertyOp45
 70
     1
102
RTVSPropertyOp46
 70
     1
102
RTVSPropertyOp47
 70
     1
102
RTVSPropertyOp48
 70
     1
102
RTVSPropertyOp49
 70
     1
102
RTVSPropertyOp50
 70
     1
102
RTVSPropertyOp51
 70
     0
102
RTVSPropertyOp52
 70
     0
102
RTVSPropertyOp53
 70
     1
102
RTVSPropertyOp54
 70
     1
102
RTVSPropertyOp55
 70
     1
102
RTVSPropertyOp56
 70
     1
102
RTVSPropertyOp57
 70
     1
102
RTVSPost2010Prop28
280
     0
102
RTVSPost2010PropOp28
 70
     1
102
RTVSPost2010Prop29
280
     1
102
RTVSPost2010PropOp29
 70
     1
102
RTVSPost2010Prop30
280
     1
102
RTVSPost2010PropOp30
 70
     1
102
RTVSPost2010Prop31
280
     0
102
RTVSPost2010PropOp31
 70
     1
102
RTVSPost2010Prop32
280
     0
102
RTVSPost2010PropOp32
 70
     1
102
RTVSPost2010Prop33
280
     0
102
RTVSPost2010PropOp33
 70
     1
102
RTVSPost2010Prop34
280
     0
102
RTVSPost2010PropOp34
 70
     1
102
RTVSPost2010Prop35
280
     0
102
RTVSPost2010PropOp35
 70
     1
102
RTVSPost2010Prop36
280
     0
102
RTVSPost2010PropOp36
 70
     1
102
RTVSPost2010Prop37
 90
       50
102
RTVSPost2010PropOp37
 70
     1
102
RTVSPost2010Prop38
140
0.0
102
RTVSPost2010PropOp38
 70
     1
102
RTVSPost2010Prop39
140
1.0
102
RTVSPost2010PropOp39
 70
     1
102
RTVSPost2010Prop40
 90
        0
102
RTVSPost2010PropOp40
 70
     1
102
RTVSPost2010Prop41ColorIndex
 90
       18
102
RTVSPost2010Prop41ColorRGB
 90
        0
102
RTVSPost2010PropOp41
 70
     1
102
RTVSPost2010Prop42
 90
       50
102
RTVSPost2010PropOp42
 70
     1
102
RTVSPost2010Prop43
 90
        3
102
RTVSPost2010PropOp43
 70
     1
102
RTVSPost2010Prop44ColorIndex
 90
        5
102
RTVSPost2010Prop44ColorRGB
 90
      255
102
RTVSPost2010PropOp44
 70
     1
102
RTVSPost2010Prop45
280
     0
102
RTVSPost2010PropOp45
 70
     1
102
RTVSPost2010Prop46
 90
       50
102
RTVSPost2010PropOp46
 70
     1
102
RTVSPost2010Prop47
 90
       50
102
RTVSPost2010PropOp47
 70
     1
102
RTVSPost2010Prop48
 90
       50
102
RTVSPost2010PropOp48
 70
     1
102
RTVSPost2010Prop49
280
     0
102
RTVSPost2010PropOp49
 70
     1
102
RTVSPost2010Prop50
 90
       50
102
RTVSPost2010PropOp50
 70
     1
102
RTVSPost2010Prop51ColorIndex
 90
      256
102
RTVSPost2010Prop51ColorRGB
 90
-16777216
102
RTVSPost2010PropOp51
 70
     0
102
RTVSPost2010Prop52
140
1.0
102
RTVSPost2010PropOp52
 70
     0
102
RTVSPost2010Prop53
 90
        2
102
RTVSPost2010PropOp53
 70
     1
102
RTVSPost2010Prop54
  1
strokes_ogs.tif
102
RTVSPost2010PropOp54
 70
     1
102
RTVSPost2010Prop55
280
     0
102
RTVSPost2010PropOp55
 70
     1
102
RTVSPost2010Prop56
140
1.0
102
RTVSPost2010PropOp56
 70
     1
102
RTVSPost2010Prop57
140
1.0
102
RTVSPost2010PropOp57
 70
     1
  0
XRECORD
  5
39F
102
{ACAD_REACTORS
330
39E
102
}
330
39E
100
AcDbXrecord
280
     1
102
RTVSPropertyOp0
 70
     1
102
RTVSPropertyOp1
 70
     1
102
RTVSPropertyOp2
 70
     1
102
RTVSPropertyOp3
 70
     1
102
RTVSPropertyOp4
 70
     1
102
RTVSPropertyOp5
 70
     1
102
RTVSPropertyOp6
 70
     1
102
RTVSPropertyOp7
 70
     1
102
RTVSPropertyOp8
 70
     1
102
RTVSPropertyOp9
 70
     1
102
RTVSPropertyOp10
 70
     1
102
RTVSPropertyOp11
 70
     1
102
RTVSPropertyOp12
 70
     1
102
RTVSPropertyOp13
 70
     1
102
RTVSPropertyOp14
 70
     1
102
RTVSPropertyOp15
 70
     1
102
RTVSPropertyOp16
 70
     1
102
RTVSPropertyOp17
 70
     1
102
RTVSPropertyOp18
 70
     1
102
RTVSPropertyOp19
 70
     1
102
RTVSPropertyOp20
 70
     1
102
RTVSPropertyOp21
 70
     1
102
RTVSPropertyOp22
 70
     1
102
RTVSPropertyOp23
 70
     1
102
RTVSPropertyOp24
 70
     1
102
RTVSPropertyOp25
 70
     1
102
RTVSPropertyOp26
 70
     1
102
RTVSPropertyOp27
 70
     1
102
RTVSPropertyOp28
 70
     1
102
RTVSPropertyOp29
 70
     1
102
RTVSPropertyOp30
 70
     1
102
RTVSPropertyOp31
 70
     1
102
RTVSPropertyOp32
 70
     1
102
RTVSPropertyOp33
 70
     1
102
RTVSPropertyOp34
 70
     1
102
RTVSPropertyOp35
 70
     1
102
RTVSPropertyOp36
 70
     1
102
RTVSPropertyOp37
 70
     1
102
RTVSPropertyOp38
 70
     1
102
RTVSPropertyOp39
 70
     1
102
RTVSPropertyOp40
 70
     1
102
RTVSPropertyOp41
 70
     1
102
RTVSPropertyOp42
 70
     1
102
RTVSPropertyOp43
 70
     1
102
RTVSPropertyOp44
 70
     1
102
RTVSPropertyOp45
 70
     1
102
RTVSPropertyOp46
 70
     1
102
RTVSPropertyOp47
 70
     1
102
RTVSPropertyOp48
 70
     1
102
RTVSPropertyOp49
 70
     1
102
RTVSPropertyOp50
 70
     1
102
RTVSPropertyOp51
 70
     0
102
RTVSPropertyOp52
 70
     0
102
RTVSPropertyOp53
 70
     1
102
RTVSPropertyOp54
 70
     1
102
RTVSPropertyOp55
 70
     1
102
RTVSPropertyOp56
 70
     1
102
RTVSPropertyOp57
 70
     1
102
RTVSPost2010Prop28
280
     0
102
RTVSPost2010PropOp28
 70
     1
102
RTVSPost2010Prop29
280
     1
102
RTVSPost2010PropOp29
 70
     1
102
RTVSPost2010Prop30
280
     1
102
RTVSPost2010PropOp30
 70
     1
102
RTVSPost2010Prop31
280
     0
102
RTVSPost2010PropOp31
 70
     1
102
RTVSPost2010Prop32
280
     0
102
RTVSPost2010PropOp32
 70
     1
102
RTVSPost2010Prop33
280
     0
102
RTVSPost2010PropOp33
 70
     1
102
RTVSPost2010Prop34
280
     0
102
RTVSPost2010PropOp34
 70
     1
102
RTVSPost2010Prop35
280
     0
102
RTVSPost2010PropOp35
 70
     1
102
RTVSPost2010Prop36
280
     0
102
RTVSPost2010PropOp36
 70
     1
102
RTVSPost2010Prop37
 90
       50
102
RTVSPost2010PropOp37
 70
     1
102
RTVSPost2010Prop38
140
0.0
102
RTVSPost2010PropOp38
 70
     1
102
RTVSPost2010Prop39
140
1.0
102
RTVSPost2010PropOp39
 70
     1
102
RTVSPost2010Prop40
 90
        0
102
RTVSPost2010PropOp40
 70
     1
102
RTVSPost2010Prop41ColorIndex
 90
       18
102
RTVSPost2010Prop41ColorRGB
 90
        0
102
RTVSPost2010PropOp41
 70
     1
102
RTVSPost2010Prop42
 90
       50
102
RTVSPost2010PropOp42
 70
     1
102
RTVSPost2010Prop43
 90
        3
102
RTVSPost2010PropOp43
 70
     1
102
RTVSPost2010Prop44ColorIndex
 90
        5
102
RTVSPost2010Prop44ColorRGB
 90
      255
102
RTVSPost2010PropOp44
 70
     1
102
RTVSPost2010Prop45
280
     0
102
RTVSPost2010PropOp45
 70
     1
102
RTVSPost2010Prop46
 90
       50
102
RTVSPost2010PropOp46
 70
     1
102
RTVSPost2010Prop47
 90
       50
102
RTVSPost2010PropOp47
 70
     1
102
RTVSPost2010Prop48
 90
       50
102
RTVSPost2010PropOp48
 70
     1
102
RTVSPost2010Prop49
280
     0
102
RTVSPost2010PropOp49
 70
     1
102
RTVSPost2010Prop50
 90
       50
102
RTVSPost2010PropOp50
 70
     1
102
RTVSPost2010Prop51ColorIndex
 90
      256
102
RTVSPost2010Prop51ColorRGB
 90
-16777216
102
RTVSPost2010PropOp51
 70
     0
102
RTVSPost2010Prop52
140
1.0
102
RTVSPost2010PropOp52
 70
     0
102
RTVSPost2010Prop53
 90
        2
102
RTVSPost2010PropOp53
 70
     1
102
RTVSPost2010Prop54
  1
strokes_ogs.tif
102
RTVSPost2010PropOp54
 70
     1
102
RTVSPost2010Prop55
280
     0
102
RTVSPost2010PropOp55
 70
     1
102
RTVSPost2010Prop56
140
1.0
102
RTVSPost2010PropOp56
 70
     1
102
RTVSPost2010Prop57
140
1.0
102
RTVSPost2010PropOp57
 70
     1
  0
XRECORD
  5
3A1
102
{ACAD_REACTORS
330
3A0
102
}
330
3A0
100
AcDbXrecord
280
     1
102
RTVSPropertyOp0
 70
     1
102
RTVSPropertyOp1
 70
     1
102
RTVSPropertyOp2
 70
     1
102
RTVSPropertyOp3
 70
     1
102
RTVSPropertyOp4
 70
     1
102
RTVSPropertyOp5
 70
     1
102
RTVSPropertyOp6
 70
     1
102
RTVSPropertyOp7
 70
     1
102
RTVSPropertyOp8
 70
     1
102
RTVSPropertyOp9
 70
     1
102
RTVSPropertyOp10
 70
     1
102
RTVSPropertyOp11
 70
     1
102
RTVSPropertyOp12
 70
     1
102
RTVSPropertyOp13
 70
     1
102
RTVSPropertyOp14
 70
     1
102
RTVSPropertyOp15
 70
     1
102
RTVSPropertyOp16
 70
     1
102
RTVSPropertyOp17
 70
     1
102
RTVSPropertyOp18
 70
     1
102
RTVSPropertyOp19
 70
     1
102
RTVSPropertyOp20
 70
     1
102
RTVSPropertyOp21
 70
     1
102
RTVSPropertyOp22
 70
     1
102
RTVSPropertyOp23
 70
     1
102
RTVSPropertyOp24
 70
     1
102
RTVSPropertyOp25
 70
     1
102
RTVSPropertyOp26
 70
     1
102
RTVSPropertyOp27
 70
     1
102
RTVSPropertyOp28
 70
     1
102
RTVSPropertyOp29
 70
     1
102
RTVSPropertyOp30
 70
     1
102
RTVSPropertyOp31
 70
     1
102
RTVSPropertyOp32
 70
     1
102
RTVSPropertyOp33
 70
     1
102
RTVSPropertyOp34
 70
     1
102
RTVSPropertyOp35
 70
     1
102
RTVSPropertyOp36
 70
     1
102
RTVSPropertyOp37
 70
     1
102
RTVSPropertyOp38
 70
     1
102
RTVSPropertyOp39
 70
     1
102
RTVSPropertyOp40
 70
     1
102
RTVSPropertyOp41
 70
     1
102
RTVSPropertyOp42
 70
     1
102
RTVSPropertyOp43
 70
     1
102
RTVSPropertyOp44
 70
     1
102
RTVSPropertyOp45
 70
     1
102
RTVSPropertyOp46
 70
     1
102
RTVSPropertyOp47
 70
     1
102
RTVSPropertyOp48
 70
     1
102
RTVSPropertyOp49
 70
     1
102
RTVSPropertyOp50
 70
     1
102
RTVSPropertyOp51
 70
     0
102
RTVSPropertyOp52
 70
     0
102
RTVSPropertyOp53
 70
     1
102
RTVSPropertyOp54
 70
     1
102
RTVSPropertyOp55
 70
     1
102
RTVSPropertyOp56
 70
     1
102
RTVSPropertyOp57
 70
     1
102
RTVSPost2010Prop28
280
     0
102
RTVSPost2010PropOp28
 70
     1
102
RTVSPost2010Prop29
280
     1
102
RTVSPost2010PropOp29
 70
     1
102
RTVSPost2010Prop30
280
     1
102
RTVSPost2010PropOp30
 70
     1
102
RTVSPost2010Prop31
280
     0
102
RTVSPost2010PropOp31
 70
     1
102
RTVSPost2010Prop32
280
     0
102
RTVSPost2010PropOp32
 70
     1
102
RTVSPost2010Prop33
280
     0
102
RTVSPost2010PropOp33
 70
     1
102
RTVSPost2010Prop34
280
     0
102
RTVSPost2010PropOp34
 70
     1
102
RTVSPost2010Prop35
280
     0
102
RTVSPost2010PropOp35
 70
     1
102
RTVSPost2010Prop36
280
     0
102
RTVSPost2010PropOp36
 70
     1
102
RTVSPost2010Prop37
 90
       50
102
RTVSPost2010PropOp37
 70
     1
102
RTVSPost2010Prop38
140
0.0
102
RTVSPost2010PropOp38
 70
     1
102
RTVSPost2010Prop39
140
1.0
102
RTVSPost2010PropOp39
 70
     1
102
RTVSPost2010Prop40
 90
        0
102
RTVSPost2010PropOp40
 70
     1
102
RTVSPost2010Prop41ColorIndex
 90
       18
102
RTVSPost2010Prop41ColorRGB
 90
        0
102
RTVSPost2010PropOp41
 70
     1
102
RTVSPost2010Prop42
 90
       50
102
RTVSPost2010PropOp42
 70
     1
102
RTVSPost2010Prop43
 90
        3
102
RTVSPost2010PropOp43
 70
     1
102
RTVSPost2010Prop44ColorIndex
 90
        5
102
RTVSPost2010Prop44ColorRGB
 90
      255
102
RTVSPost2010PropOp44
 70
     1
102
RTVSPost2010Prop45
280
     0
102
RTVSPost2010PropOp45
 70
     1
102
RTVSPost2010Prop46
 90
       50
102
RTVSPost2010PropOp46
 70
     1
102
RTVSPost2010Prop47
 90
       50
102
RTVSPost2010PropOp47
 70
     1
102
RTVSPost2010Prop48
 90
       50
102
RTVSPost2010PropOp48
 70
     1
102
RTVSPost2010Prop49
280
     0
102
RTVSPost2010PropOp49
 70
     1
102
RTVSPost2010Prop50
 90
       50
102
RTVSPost2010PropOp50
 70
     1
102
RTVSPost2010Prop51ColorIndex
 90
      256
102
RTVSPost2010Prop51ColorRGB
 90
-16777216
102
RTVSPost2010PropOp51
 70
     0
102
RTVSPost2010Prop52
140
1.0
102
RTVSPost2010PropOp52
 70
     0
102
RTVSPost2010Prop53
 90
        2
102
RTVSPost2010PropOp53
 70
     1
102
RTVSPost2010Prop54
  1
strokes_ogs.tif
102
RTVSPost2010PropOp54
 70
     1
102
RTVSPost2010Prop55
280
     0
102
RTVSPost2010PropOp55
 70
     1
102
RTVSPost2010Prop56
140
1.0
102
RTVSPost2010PropOp56
 70
     1
102
RTVSPost2010Prop57
140
1.0
102
RTVSPost2010PropOp57
 70
     1
  0
XRECORD
  5
3A7
102
{ACAD_REACTORS
330
3A6
102
}
330
3A6
100
AcDbXrecord
280
     1
102
RTVSPropertyOp0
 70
     1
102
RTVSPropertyOp1
 70
     1
102
RTVSPropertyOp2
 70
     1
102
RTVSPropertyOp3
 70
     1
102
RTVSPropertyOp4
 70
     1
102
RTVSPropertyOp5
 70
     1
102
RTVSPropertyOp6
 70
     1
102
RTVSPropertyOp7
 70
     1
102
RTVSPropertyOp8
 70
     1
102
RTVSPropertyOp9
 70
     1
102
RTVSPropertyOp10
 70
     1
102
RTVSPropertyOp11
 70
     1
102
RTVSPropertyOp12
 70
     1
102
RTVSPropertyOp13
 70
     1
102
RTVSPropertyOp14
 70
     1
102
RTVSPropertyOp15
 70
     1
102
RTVSPropertyOp16
 70
     1
102
RTVSPropertyOp17
 70
     1
102
RTVSPropertyOp18
 70
     1
102
RTVSPropertyOp19
 70
     1
102
RTVSPropertyOp20
 70
     1
102
RTVSPropertyOp21
 70
     1
102
RTVSPropertyOp22
 70
     1
102
RTVSPropertyOp23
 70
     1
102
RTVSPropertyOp24
 70
     1
102
RTVSPropertyOp25
 70
     1
102
RTVSPropertyOp26
 70
     1
102
RTVSPropertyOp27
 70
     1
102
RTVSPropertyOp28
 70
     1
102
RTVSPropertyOp29
 70
     1
102
RTVSPropertyOp30
 70
     1
102
RTVSPropertyOp31
 70
     1
102
RTVSPropertyOp32
 70
     1
102
RTVSPropertyOp33
 70
     1
102
RTVSPropertyOp34
 70
     1
102
RTVSPropertyOp35
 70
     1
102
RTVSPropertyOp36
 70
     1
102
RTVSPropertyOp37
 70
     1
102
RTVSPropertyOp38
 70
     1
102
RTVSPropertyOp39
 70
     1
102
RTVSPropertyOp40
 70
     1
102
RTVSPropertyOp41
 70
     1
102
RTVSPropertyOp42
 70
     1
102
RTVSPropertyOp43
 70
     1
102
RTVSPropertyOp44
 70
     1
102
RTVSPropertyOp45
 70
     1
102
RTVSPropertyOp46
 70
     1
102
RTVSPropertyOp47
 70
     1
102
RTVSPropertyOp48
 70
     1
102
RTVSPropertyOp49
 70
     1
102
RTVSPropertyOp50
 70
     1
102
RTVSPropertyOp51
 70
     0
102
RTVSPropertyOp52
 70
     0
102
RTVSPropertyOp53
 70
     1
102
RTVSPropertyOp54
 70
     1
102
RTVSPropertyOp55
 70
     1
102
RTVSPropertyOp56
 70
     1
102
RTVSPropertyOp57
 70
     1
102
RTVSPost2010Prop28
280
     0
102
RTVSPost2010PropOp28
 70
     1
102
RTVSPost2010Prop29
280
     1
102
RTVSPost2010PropOp29
 70
     1
102
RTVSPost2010Prop30
280
     1
102
RTVSPost2010PropOp30
 70
     1
102
RTVSPost2010Prop31
280
     0
102
RTVSPost2010PropOp31
 70
     1
102
RTVSPost2010Prop32
280
     0
102
RTVSPost2010PropOp32
 70
     1
102
RTVSPost2010Prop33
280
     0
102
RTVSPost2010PropOp33
 70
     1
102
RTVSPost2010Prop34
280
     0
102
RTVSPost2010PropOp34
 70
     1
102
RTVSPost2010Prop35
280
     0
102
RTVSPost2010PropOp35
 70
     1
102
RTVSPost2010Prop36
280
     0
102
RTVSPost2010PropOp36
 70
     1
102
RTVSPost2010Prop37
 90
       50
102
RTVSPost2010PropOp37
 70
     1
102
RTVSPost2010Prop38
140
0.0
102
RTVSPost2010PropOp38
 70
     1
102
RTVSPost2010Prop39
140
1.0
102
RTVSPost2010PropOp39
 70
     1
102
RTVSPost2010Prop40
 90
        0
102
RTVSPost2010PropOp40
 70
     1
102
RTVSPost2010Prop41ColorIndex
 90
       18
102
RTVSPost2010Prop41ColorRGB
 90
        0
102
RTVSPost2010PropOp41
 70
     1
102
RTVSPost2010Prop42
 90
       50
102
RTVSPost2010PropOp42
 70
     1
102
RTVSPost2010Prop43
 90
        3
102
RTVSPost2010PropOp43
 70
     1
102
RTVSPost2010Prop44ColorIndex
 90
        5
102
RTVSPost2010Prop44ColorRGB
 90
      255
102
RTVSPost2010PropOp44
 70
     1
102
RTVSPost2010Prop45
280
     0
102
RTVSPost2010PropOp45
 70
     1
102
RTVSPost2010Prop46
 90
       50
102
RTVSPost2010PropOp46
 70
     1
102
RTVSPost2010Prop47
 90
       50
102
RTVSPost2010PropOp47
 70
     1
102
RTVSPost2010Prop48
 90
       50
102
RTVSPost2010PropOp48
 70
     1
102
RTVSPost2010Prop49
280
     0
102
RTVSPost2010PropOp49
 70
     1
102
RTVSPost2010Prop50
 90
       50
102
RTVSPost2010PropOp50
 70
     1
102
RTVSPost2010Prop51ColorIndex
 90
      256
102
RTVSPost2010Prop51ColorRGB
 90
-16777216
102
RTVSPost2010PropOp51
 70
     0
102
RTVSPost2010Prop52
140
1.0
102
RTVSPost2010PropOp52
 70
     0
102
RTVSPost2010Prop53
 90
        2
102
RTVSPost2010PropOp53
 70
     1
102
RTVSPost2010Prop54
  1
strokes_ogs.tif
102
RTVSPost2010PropOp54
 70
     1
102
RTVSPost2010Prop55
280
     0
102
RTVSPost2010PropOp55
 70
     1
102
RTVSPost2010Prop56
140
1.0
102
RTVSPost2010PropOp56
 70
     1
102
RTVSPost2010Prop57
140
1.0
102
RTVSPost2010PropOp57
 70
     1
  0
XRECORD
  5
3BB
102
{ACAD_REACTORS
330
3BA
102
}
330
3BA
100
AcDbXrecord
280
     1
102
RTVSPropertyOp0
 70
     0
102
RTVSPropertyOp1
 70
     0
102
RTVSPropertyOp2
 70
     0
102
RTVSPropertyOp3
 70
     0
102
RTVSPropertyOp4
 70
     0
102
RTVSPropertyOp5
 70
     0
102
RTVSPropertyOp6
 70
     0
102
RTVSPropertyOp7
 70
     0
102
RTVSPropertyOp8
 70
     0
102
RTVSPropertyOp9
 70
     0
102
RTVSPropertyOp10
 70
     0
102
RTVSPropertyOp11
 70
     0
102
RTVSPropertyOp12
 70
     0
102
RTVSPropertyOp13
 70
     0
102
RTVSPropertyOp14
 70
     2
102
RTVSPropertyOp15
 70
     0
102
RTVSPropertyOp16
 70
     0
102
RTVSPropertyOp17
 70
     0
102
RTVSPropertyOp18
 70
     0
102
RTVSPropertyOp19
 70
     0
102
RTVSPropertyOp20
 70
     0
102
RTVSPropertyOp21
 70
     0
102
RTVSPropertyOp22
 70
     0
102
RTVSPropertyOp23
 70
     0
102
RTVSPropertyOp24
 70
     0
102
RTVSPropertyOp25
 70
     0
102
RTVSPropertyOp26
 70
     0
102
RTVSPropertyOp27
 70
     0
102
RTVSPropertyOp28
 70
     0
102
RTVSPropertyOp29
 70
     0
102
RTVSPropertyOp30
 70
     0
102
RTVSPropertyOp31
 70
     0
102
RTVSPropertyOp32
 70
     0
102
RTVSPropertyOp33
 70
     0
102
RTVSPropertyOp34
 70
     0
102
RTVSPropertyOp35
 70
     0
102
RTVSPropertyOp36
 70
     0
102
RTVSPropertyOp37
 70
     0
102
RTVSPropertyOp38
 70
     0
102
RTVSPropertyOp39
 70
     0
102
RTVSPropertyOp40
 70
     0
102
RTVSPropertyOp41
 70
     0
102
RTVSPropertyOp42
 70
     0
102
RTVSPropertyOp43
 70
     0
102
RTVSPropertyOp44
 70
     0
102
RTVSPropertyOp45
 70
     0
102
RTVSPropertyOp46
 70
     0
102
RTVSPropertyOp47
 70
     0
102
RTVSPropertyOp48
 70
     0
102
RTVSPropertyOp49
 70
     0
102
RTVSPropertyOp50
 70
     0
102
RTVSPropertyOp51
 70
     0
102
RTVSPropertyOp52
 70
     0
102
RTVSPropertyOp53
 70
     0
102
RTVSPropertyOp54
 70
     0
102
RTVSPropertyOp55
 70
     0
102
RTVSPropertyOp56
 70
     0
102
RTVSPropertyOp57
 70
     0
102
RTVSPost2010Prop28
280
     0
102
RTVSPost2010PropOp28
 70
     0
102
RTVSPost2010Prop29
280
     1
102
RTVSPost2010PropOp29
 70
     0
102
RTVSPost2010Prop30
280
     1
102
RTVSPost2010PropOp30
 70
     0
102
RTVSPost2010Prop31
280
     0
102
RTVSPost2010PropOp31
 70
     0
102
RTVSPost2010Prop32
280
     0
102
RTVSPost2010PropOp32
 70
     0
102
RTVSPost2010Prop33
280
     0
102
RTVSPost2010PropOp33
 70
     0
102
RTVSPost2010Prop34
280
     0
102
RTVSPost2010PropOp34
 70
     0
102
RTVSPost2010Prop35
280
     0
102
RTVSPost2010PropOp35
 70
     0
102
RTVSPost2010Prop36
280
     0
102
RTVSPost2010PropOp36
 70
     0
102
RTVSPost2010Prop37
 90
       50
102
RTVSPost2010PropOp37
 70
     0
102
RTVSPost2010Prop38
140
0.0
102
RTVSPost2010PropOp38
 70
     0
102
RTVSPost2010Prop39
140
1.0
102
RTVSPost2010PropOp39
 70
     0
102
RTVSPost2010Prop40
 90
        0
102
RTVSPost2010PropOp40
 70
     0
102
RTVSPost2010Prop41ColorIndex
 90
       18
102
RTVSPost2010Prop41ColorRGB
 90
        0
102
RTVSPost2010PropOp41
 70
     0
102
RTVSPost2010Prop42
 90
       50
102
RTVSPost2010PropOp42
 70
     0
102
RTVSPost2010Prop43
 90
        3
102
RTVSPost2010PropOp43
 70
     0
102
RTVSPost2010Prop44ColorIndex
 90
        5
102
RTVSPost2010Prop44ColorRGB
 90
      255
102
RTVSPost2010PropOp44
 70
     0
102
RTVSPost2010Prop45
280
     0
102
RTVSPost2010PropOp45
 70
     0
102
RTVSPost2010Prop46
 90
       50
102
RTVSPost2010PropOp46
 70
     0
102
RTVSPost2010Prop47
 90
       50
102
RTVSPost2010PropOp47
 70
     0
102
RTVSPost2010Prop48
 90
       50
102
RTVSPost2010PropOp48
 70
     0
102
RTVSPost2010Prop49
280
     0
102
RTVSPost2010PropOp49
 70
     0
102
RTVSPost2010Prop50
 90
       50
102
RTVSPost2010PropOp50
 70
     0
102
RTVSPost2010Prop51ColorIndex
 90
      256
102
RTVSPost2010Prop51ColorRGB
 90
-16777216
102
RTVSPost2010PropOp51
 70
     0
102
RTVSPost2010Prop52
140
1.0
102
RTVSPost2010PropOp52
 70
     0
102
RTVSPost2010Prop53
 90
        2
102
RTVSPost2010PropOp53
 70
     0
102
RTVSPost2010Prop54
  1
strokes_ogs.tif
102
RTVSPost2010PropOp54
 70
     0
102
RTVSPost2010Prop55
280
     0
102
RTVSPost2010PropOp55
 70
     0
102
RTVSPost2010Prop56
140
1.0
102
RTVSPost2010PropOp56
 70
     0
102
RTVSPost2010Prop57
140
1.0
102
RTVSPost2010PropOp57
 70
     0
  0
XRECORD
  5
3B5
102
{ACAD_REACTORS
330
3B4
102
}
330
3B4
100
AcDbXrecord
280
     1
102
RTVSPropertyOp0
 70
     1
102
RTVSPropertyOp1
 70
     1
102
RTVSPropertyOp2
 70
     1
102
RTVSPropertyOp3
 70
     1
102
RTVSPropertyOp4
 70
     1
102
RTVSPropertyOp5
 70
     1
102
RTVSPropertyOp6
 70
     1
102
RTVSPropertyOp7
 70
     1
102
RTVSPropertyOp8
 70
     1
102
RTVSPropertyOp9
 70
     1
102
RTVSPropertyOp10
 70
     1
102
RTVSPropertyOp11
 70
     1
102
RTVSPropertyOp12
 70
     1
102
RTVSPropertyOp13
 70
     1
102
RTVSPropertyOp14
 70
     1
102
RTVSPropertyOp15
 70
     1
102
RTVSPropertyOp16
 70
     1
102
RTVSPropertyOp17
 70
     1
102
RTVSPropertyOp18
 70
     1
102
RTVSPropertyOp19
 70
     1
102
RTVSPropertyOp20
 70
     1
102
RTVSPropertyOp21
 70
     1
102
RTVSPropertyOp22
 70
     1
102
RTVSPropertyOp23
 70
     1
102
RTVSPropertyOp24
 70
     1
102
RTVSPropertyOp25
 70
     1
102
RTVSPropertyOp26
 70
     1
102
RTVSPropertyOp27
 70
     1
102
RTVSPropertyOp28
 70
     1
102
RTVSPropertyOp29
 70
     1
102
RTVSPropertyOp30
 70
     1
102
RTVSPropertyOp31
 70
     1
102
RTVSPropertyOp32
 70
     1
102
RTVSPropertyOp33
 70
     1
102
RTVSPropertyOp34
 70
     1
102
RTVSPropertyOp35
 70
     1
102
RTVSPropertyOp36
 70
     1
102
RTVSPropertyOp37
 70
     1
102
RTVSPropertyOp38
 70
     1
102
RTVSPropertyOp39
 70
     1
102
RTVSPropertyOp40
 70
     1
102
RTVSPropertyOp41
 70
     1
102
RTVSPropertyOp42
 70
     1
102
RTVSPropertyOp43
 70
     1
102
RTVSPropertyOp44
 70
     1
102
RTVSPropertyOp45
 70
     1
102
RTVSPropertyOp46
 70
     1
102
RTVSPropertyOp47
 70
     1
102
RTVSPropertyOp48
 70
     1
102
RTVSPropertyOp49
 70
     1
102
RTVSPropertyOp50
 70
     1
102
RTVSPropertyOp51
 70
     0
102
RTVSPropertyOp52
 70
     0
102
RTVSPropertyOp53
 70
     1
102
RTVSPropertyOp54
 70
     1
102
RTVSPropertyOp55
 70
     1
102
RTVSPropertyOp56
 70
     1
102
RTVSPropertyOp57
 70
     1
102
RTVSPost2010Prop28
280
     0
102
RTVSPost2010PropOp28
 70
     1
102
RTVSPost2010Prop29
280
     1
102
RTVSPost2010PropOp29
 70
     1
102
RTVSPost2010Prop30
280
     1
102
RTVSPost2010PropOp30
 70
     1
102
RTVSPost2010Prop31
280
     0
102
RTVSPost2010PropOp31
 70
     1
102
RTVSPost2010Prop32
280
     0
102
RTVSPost2010PropOp32
 70
     1
102
RTVSPost2010Prop33
280
     0
102
RTVSPost2010PropOp33
 70
     1
102
RTVSPost2010Prop34
280
     0
102
RTVSPost2010PropOp34
 70
     1
102
RTVSPost2010Prop35
280
     0
102
RTVSPost2010PropOp35
 70
     1
102
RTVSPost2010Prop36
280
     0
102
RTVSPost2010PropOp36
 70
     1
102
RTVSPost2010Prop37
 90
       50
102
RTVSPost2010PropOp37
 70
     1
102
RTVSPost2010Prop38
140
0.0
102
RTVSPost2010PropOp38
 70
     1
102
RTVSPost2010Prop39
140
1.0
102
RTVSPost2010PropOp39
 70
     1
102
RTVSPost2010Prop40
 90
        0
102
RTVSPost2010PropOp40
 70
     1
102
RTVSPost2010Prop41ColorIndex
 90
       18
102
RTVSPost2010Prop41ColorRGB
 90
        0
102
RTVSPost2010PropOp41
 70
     1
102
RTVSPost2010Prop42
 90
       50
102
RTVSPost2010PropOp42
 70
     1
102
RTVSPost2010Prop43
 90
        3
102
RTVSPost2010PropOp43
 70
     1
102
RTVSPost2010Prop44ColorIndex
 90
        5
102
RTVSPost2010Prop44ColorRGB
 90
      255
102
RTVSPost2010PropOp44
 70
     1
102
RTVSPost2010Prop45
280
     0
102
RTVSPost2010PropOp45
 70
     1
102
RTVSPost2010Prop46
 90
       50
102
RTVSPost2010PropOp46
 70
     1
102
RTVSPost2010Prop47
 90
       50
102
RTVSPost2010PropOp47
 70
     1
102
RTVSPost2010Prop48
 90
       50
102
RTVSPost2010PropOp48
 70
     1
102
RTVSPost2010Prop49
280
     0
102
RTVSPost2010PropOp49
 70
     1
102
RTVSPost2010Prop50
 90
       50
102
RTVSPost2010PropOp50
 70
     1
102
RTVSPost2010Prop51ColorIndex
 90
      256
102
RTVSPost2010Prop51ColorRGB
 90
-16777216
102
RTVSPost2010PropOp51
 70
     0
102
RTVSPost2010Prop52
140
1.0
102
RTVSPost2010PropOp52
 70
     0
102
RTVSPost2010Prop53
 90
        2
102
RTVSPost2010PropOp53
 70
     1
102
RTVSPost2010Prop54
  1
strokes_ogs.tif
102
RTVSPost2010PropOp54
 70
     1
102
RTVSPost2010Prop55
280
     0
102
RTVSPost2010PropOp55
 70
     1
102
RTVSPost2010Prop56
140
1.0
102
RTVSPost2010PropOp56
 70
     1
102
RTVSPost2010Prop57
140
1.0
102
RTVSPost2010PropOp57
 70
     1
  0
XRECORD
  5
3BD
102
{ACAD_REACTORS
330
3BC
102
}
330
3BC
100
AcDbXrecord
280
     1
102
RTVSPropertyOp0
 70
     0
102
RTVSPropertyOp1
 70
     0
102
RTVSPropertyOp2
 70
     0
102
RTVSPropertyOp3
 70
     0
102
RTVSPropertyOp4
 70
     0
102
RTVSPropertyOp5
 70
     0
102
RTVSPropertyOp6
 70
     0
102
RTVSPropertyOp7
 70
     0
102
RTVSPropertyOp8
 70
     0
102
RTVSPropertyOp9
 70
     0
102
RTVSPropertyOp10
 70
     0
102
RTVSPropertyOp11
 70
     0
102
RTVSPropertyOp12
 70
     0
102
RTVSPropertyOp13
 70
     0
102
RTVSPropertyOp14
 70
     2
102
RTVSPropertyOp15
 70
     0
102
RTVSPropertyOp16
 70
     0
102
RTVSPropertyOp17
 70
     0
102
RTVSPropertyOp18
 70
     0
102
RTVSPropertyOp19
 70
     0
102
RTVSPropertyOp20
 70
     0
102
RTVSPropertyOp21
 70
     0
102
RTVSPropertyOp22
 70
     0
102
RTVSPropertyOp23
 70
     0
102
RTVSPropertyOp24
 70
     0
102
RTVSPropertyOp25
 70
     0
102
RTVSPropertyOp26
 70
     0
102
RTVSPropertyOp27
 70
     0
102
RTVSPropertyOp28
 70
     0
102
RTVSPropertyOp29
 70
     0
102
RTVSPropertyOp30
 70
     0
102
RTVSPropertyOp31
 70
     0
102
RTVSPropertyOp32
 70
     0
102
RTVSPropertyOp33
 70
     0
102
RTVSPropertyOp34
 70
     0
102
RTVSPropertyOp35
 70
     0
102
RTVSPropertyOp36
 70
     0
102
RTVSPropertyOp37
 70
     0
102
RTVSPropertyOp38
 70
     0
102
RTVSPropertyOp39
 70
     0
102
RTVSPropertyOp40
 70
     0
102
RTVSPropertyOp41
 70
     0
102
RTVSPropertyOp42
 70
     0
102
RTVSPropertyOp43
 70
     0
102
RTVSPropertyOp44
 70
     0
102
RTVSPropertyOp45
 70
     0
102
RTVSPropertyOp46
 70
     0
102
RTVSPropertyOp47
 70
     0
102
RTVSPropertyOp48
 70
     0
102
RTVSPropertyOp49
 70
     0
102
RTVSPropertyOp50
 70
     0
102
RTVSPropertyOp51
 70
     0
102
RTVSPropertyOp52
 70
     0
102
RTVSPropertyOp53
 70
     0
102
RTVSPropertyOp54
 70
     0
102
RTVSPropertyOp55
 70
     0
102
RTVSPropertyOp56
 70
     0
102
RTVSPropertyOp57
 70
     0
102
RTVSPost2010Prop28
280
     0
102
RTVSPost2010PropOp28
 70
     0
102
RTVSPost2010Prop29
280
     1
102
RTVSPost2010PropOp29
 70
     0
102
RTVSPost2010Prop30
280
     1
102
RTVSPost2010PropOp30
 70
     0
102
RTVSPost2010Prop31
280
     0
102
RTVSPost2010PropOp31
 70
     0
102
RTVSPost2010Prop32
280
     0
102
RTVSPost2010PropOp32
 70
     0
102
RTVSPost2010Prop33
280
     0
102
RTVSPost2010PropOp33
 70
     0
102
RTVSPost2010Prop34
280
     0
102
RTVSPost2010PropOp34
 70
     0
102
RTVSPost2010Prop35
280
     0
102
RTVSPost2010PropOp35
 70
     0
102
RTVSPost2010Prop36
280
     0
102
RTVSPost2010PropOp36
 70
     0
102
RTVSPost2010Prop37
 90
       50
102
RTVSPost2010PropOp37
 70
     0
102
RTVSPost2010Prop38
140
0.0
102
RTVSPost2010PropOp38
 70
     0
102
RTVSPost2010Prop39
140
1.0
102
RTVSPost2010PropOp39
 70
     0
102
RTVSPost2010Prop40
 90
        0
102
RTVSPost2010PropOp40
 70
     0
102
RTVSPost2010Prop41ColorIndex
 90
       18
102
RTVSPost2010Prop41ColorRGB
 90
        0
102
RTVSPost2010PropOp41
 70
     0
102
RTVSPost2010Prop42
 90
       50
102
RTVSPost2010PropOp42
 70
     0
102
RTVSPost2010Prop43
 90
        3
102
RTVSPost2010PropOp43
 70
     0
102
RTVSPost2010Prop44ColorIndex
 90
        5
102
RTVSPost2010Prop44ColorRGB
 90
      255
102
RTVSPost2010PropOp44
 70
     0
102
RTVSPost2010Prop45
280
     0
102
RTVSPost2010PropOp45
 70
     0
102
RTVSPost2010Prop46
 90
       50
102
RTVSPost2010PropOp46
 70
     0
102
RTVSPost2010Prop47
 90
       50
102
RTVSPost2010PropOp47
 70
     0
102
RTVSPost2010Prop48
 90
       50
102
RTVSPost2010PropOp48
 70
     0
102
RTVSPost2010Prop49
280
     0
102
RTVSPost2010PropOp49
 70
     0
102
RTVSPost2010Prop50
 90
       50
102
RTVSPost2010PropOp50
 70
     0
102
RTVSPost2010Prop51ColorIndex
 90
      256
102
RTVSPost2010Prop51ColorRGB
 90
-16777216
102
RTVSPost2010PropOp51
 70
     0
102
RTVSPost2010Prop52
140
1.0
102
RTVSPost2010PropOp52
 70
     0
102
RTVSPost2010Prop53
 90
        2
102
RTVSPost2010PropOp53
 70
     0
102
RTVSPost2010Prop54
  1
strokes_ogs.tif
102
RTVSPost2010PropOp54
 70
     0
102
RTVSPost2010Prop55
280
     0
102
RTVSPost2010PropOp55
 70
     0
102
RTVSPost2010Prop56
140
1.0
102
RTVSPost2010PropOp56
 70
     0
102
RTVSPost2010Prop57
140
1.0
102
RTVSPost2010PropOp57
 70
     0
  0
XRECORD
  5
3AB
102
{ACAD_REACTORS
330
3AA
102
}
330
3AA
100
AcDbXrecord
280
     1
102
RTVSPropertyOp0
 70
     1
102
RTVSPropertyOp1
 70
     1
102
RTVSPropertyOp2
 70
     1
102
RTVSPropertyOp3
 70
     1
102
RTVSPropertyOp4
 70
     1
102
RTVSPropertyOp5
 70
     1
102
RTVSPropertyOp6
 70
     1
102
RTVSPropertyOp7
 70
     1
102
RTVSPropertyOp8
 70
     1
102
RTVSPropertyOp9
 70
     1
102
RTVSPropertyOp10
 70
     1
102
RTVSPropertyOp11
 70
     1
102
RTVSPropertyOp12
 70
     1
102
RTVSPropertyOp13
 70
     1
102
RTVSPropertyOp14
 70
     1
102
RTVSPropertyOp15
 70
     1
102
RTVSPropertyOp16
 70
     1
102
RTVSPropertyOp17
 70
     1
102
RTVSPropertyOp18
 70
     1
102
RTVSPropertyOp19
 70
     1
102
RTVSPropertyOp20
 70
     1
102
RTVSPropertyOp21
 70
     1
102
RTVSPropertyOp22
 70
     1
102
RTVSPropertyOp23
 70
     1
102
RTVSPropertyOp24
 70
     1
102
RTVSPropertyOp25
 70
     1
102
RTVSPropertyOp26
 70
     1
102
RTVSPropertyOp27
 70
     1
102
RTVSPropertyOp28
 70
     1
102
RTVSPropertyOp29
 70
     1
102
RTVSPropertyOp30
 70
     1
102
RTVSPropertyOp31
 70
     1
102
RTVSPropertyOp32
 70
     1
102
RTVSPropertyOp33
 70
     1
102
RTVSPropertyOp34
 70
     1
102
RTVSPropertyOp35
 70
     1
102
RTVSPropertyOp36
 70
     1
102
RTVSPropertyOp37
 70
     1
102
RTVSPropertyOp38
 70
     1
102
RTVSPropertyOp39
 70
     1
102
RTVSPropertyOp40
 70
     1
102
RTVSPropertyOp41
 70
     1
102
RTVSPropertyOp42
 70
     1
102
RTVSPropertyOp43
 70
     1
102
RTVSPropertyOp44
 70
     1
102
RTVSPropertyOp45
 70
     1
102
RTVSPropertyOp46
 70
     1
102
RTVSPropertyOp47
 70
     1
102
RTVSPropertyOp48
 70
     1
102
RTVSPropertyOp49
 70
     1
102
RTVSPropertyOp50
 70
     1
102
RTVSPropertyOp51
 70
     0
102
RTVSPropertyOp52
 70
     0
102
RTVSPropertyOp53
 70
     1
102
RTVSPropertyOp54
 70
     1
102
RTVSPropertyOp55
 70
     1
102
RTVSPropertyOp56
 70
     1
102
RTVSPropertyOp57
 70
     1
102
RTVSPost2010Prop28
280
     0
102
RTVSPost2010PropOp28
 70
     1
102
RTVSPost2010Prop29
280
     1
102
RTVSPost2010PropOp29
 70
     1
102
RTVSPost2010Prop30
280
     1
102
RTVSPost2010PropOp30
 70
     1
102
RTVSPost2010Prop31
280
     0
102
RTVSPost2010PropOp31
 70
     1
102
RTVSPost2010Prop32
280
     0
102
RTVSPost2010PropOp32
 70
     1
102
RTVSPost2010Prop33
280
     0
102
RTVSPost2010PropOp33
 70
     1
102
RTVSPost2010Prop34
280
     0
102
RTVSPost2010PropOp34
 70
     1
102
RTVSPost2010Prop35
280
     0
102
RTVSPost2010PropOp35
 70
     1
102
RTVSPost2010Prop36
280
     0
102
RTVSPost2010PropOp36
 70
     1
102
RTVSPost2010Prop37
 90
       50
102
RTVSPost2010PropOp37
 70
     1
102
RTVSPost2010Prop38
140
0.0
102
RTVSPost2010PropOp38
 70
     1
102
RTVSPost2010Prop39
140
1.0
102
RTVSPost2010PropOp39
 70
     1
102
RTVSPost2010Prop40
 90
        0
102
RTVSPost2010PropOp40
 70
     1
102
RTVSPost2010Prop41ColorIndex
 90
       18
102
RTVSPost2010Prop41ColorRGB
 90
        0
102
RTVSPost2010PropOp41
 70
     1
102
RTVSPost2010Prop42
 90
       50
102
RTVSPost2010PropOp42
 70
     1
102
RTVSPost2010Prop43
 90
        3
102
RTVSPost2010PropOp43
 70
     1
102
RTVSPost2010Prop44ColorIndex
 90
        5
102
RTVSPost2010Prop44ColorRGB
 90
      255
102
RTVSPost2010PropOp44
 70
     1
102
RTVSPost2010Prop45
280
     0
102
RTVSPost2010PropOp45
 70
     1
102
RTVSPost2010Prop46
 90
       50
102
RTVSPost2010PropOp46
 70
     1
102
RTVSPost2010Prop47
 90
       50
102
RTVSPost2010PropOp47
 70
     1
102
RTVSPost2010Prop48
 90
       50
102
RTVSPost2010PropOp48
 70
     1
102
RTVSPost2010Prop49
280
     0
102
RTVSPost2010PropOp49
 70
     1
102
RTVSPost2010Prop50
 90
       50
102
RTVSPost2010PropOp50
 70
     1
102
RTVSPost2010Prop51ColorIndex
 90
      256
102
RTVSPost2010Prop51ColorRGB
 90
-16777216
102
RTVSPost2010PropOp51
 70
     0
102
RTVSPost2010Prop52
140
1.0
102
RTVSPost2010PropOp52
 70
     0
102
RTVSPost2010Prop53
 90
        2
102
RTVSPost2010PropOp53
 70
     1
102
RTVSPost2010Prop54
  1
strokes_ogs.tif
102
RTVSPost2010PropOp54
 70
     1
102
RTVSPost2010Prop55
280
     0
102
RTVSPost2010PropOp55
 70
     1
102
RTVSPost2010Prop56
140
1.0
102
RTVSPost2010PropOp56
 70
     1
102
RTVSPost2010Prop57
140
1.0
102
RTVSPost2010PropOp57
 70
     1
  0
XRECORD
  5
3C9
102
{ACAD_REACTORS
330
3C8
102
}
330
3C8
100
AcDbXrecord
280
     1
102
RTVSPropertyOp0
 70
     1
102
RTVSPropertyOp1
 70
     1
102
RTVSPropertyOp2
 70
     1
102
RTVSPropertyOp3
 70
     1
102
RTVSPropertyOp4
 70
     1
102
RTVSPropertyOp5
 70
     1
102
RTVSPropertyOp6
 70
     1
102
RTVSPropertyOp7
 70
     1
102
RTVSPropertyOp8
 70
     1
102
RTVSPropertyOp9
 70
     1
102
RTVSPropertyOp10
 70
     1
102
RTVSPropertyOp11
 70
     1
102
RTVSPropertyOp12
 70
     1
102
RTVSPropertyOp13
 70
     1
102
RTVSPropertyOp14
 70
     1
102
RTVSPropertyOp15
 70
     1
102
RTVSPropertyOp16
 70
     1
102
RTVSPropertyOp17
 70
     1
102
RTVSPropertyOp18
 70
     1
102
RTVSPropertyOp19
 70
     1
102
RTVSPropertyOp20
 70
     1
102
RTVSPropertyOp21
 70
     1
102
RTVSPropertyOp22
 70
     1
102
RTVSPropertyOp23
 70
     1
102
RTVSPropertyOp24
 70
     1
102
RTVSPropertyOp25
 70
     1
102
RTVSPropertyOp26
 70
     1
102
RTVSPropertyOp27
 70
     1
102
RTVSPropertyOp28
 70
     1
102
RTVSPropertyOp29
 70
     1
102
RTVSPropertyOp30
 70
     1
102
RTVSPropertyOp31
 70
     1
102
RTVSPropertyOp32
 70
     1
102
RTVSPropertyOp33
 70
     1
102
RTVSPropertyOp34
 70
     1
102
RTVSPropertyOp35
 70
     1
102
RTVSPropertyOp36
 70
     1
102
RTVSPropertyOp37
 70
     1
102
RTVSPropertyOp38
 70
     1
102
RTVSPropertyOp39
 70
     1
102
RTVSPropertyOp40
 70
     1
102
RTVSPropertyOp41
 70
     1
102
RTVSPropertyOp42
 70
     1
102
RTVSPropertyOp43
 70
     1
102
RTVSPropertyOp44
 70
     1
102
RTVSPropertyOp45
 70
     1
102
RTVSPropertyOp46
 70
     1
102
RTVSPropertyOp47
 70
     1
102
RTVSPropertyOp48
 70
     1
102
RTVSPropertyOp49
 70
     1
102
RTVSPropertyOp50
 70
     1
102
RTVSPropertyOp51
 70
     0
102
RTVSPropertyOp52
 70
     0
102
RTVSPropertyOp53
 70
     1
102
RTVSPropertyOp54
 70
     1
102
RTVSPropertyOp55
 70
     1
102
RTVSPropertyOp56
 70
     1
102
RTVSPropertyOp57
 70
     1
102
RTVSPost2010Prop28
280
     0
102
RTVSPost2010PropOp28
 70
     1
102
RTVSPost2010Prop29
280
     1
102
RTVSPost2010PropOp29
 70
     1
102
RTVSPost2010Prop30
280
     1
102
RTVSPost2010PropOp30
 70
     1
102
RTVSPost2010Prop31
280
     0
102
RTVSPost2010PropOp31
 70
     1
102
RTVSPost2010Prop32
280
     0
102
RTVSPost2010PropOp32
 70
     1
102
RTVSPost2010Prop33
280
     0
102
RTVSPost2010PropOp33
 70
     1
102
RTVSPost2010Prop34
280
     0
102
RTVSPost2010PropOp34
 70
     1
102
RTVSPost2010Prop35
280
     0
102
RTVSPost2010PropOp35
 70
     1
102
RTVSPost2010Prop36
280
     0
102
RTVSPost2010PropOp36
 70
     1
102
RTVSPost2010Prop37
 90
       50
102
RTVSPost2010PropOp37
 70
     1
102
RTVSPost2010Prop38
140
0.0
102
RTVSPost2010PropOp38
 70
     1
102
RTVSPost2010Prop39
140
1.0
102
RTVSPost2010PropOp39
 70
     1
102
RTVSPost2010Prop40
 90
        0
102
RTVSPost2010PropOp40
 70
     1
102
RTVSPost2010Prop41ColorIndex
 90
       18
102
RTVSPost2010Prop41ColorRGB
 90
        0
102
RTVSPost2010PropOp41
 70
     1
102
RTVSPost2010Prop42
 90
       50
102
RTVSPost2010PropOp42
 70
     1
102
RTVSPost2010Prop43
 90
        3
102
RTVSPost2010PropOp43
 70
     1
102
RTVSPost2010Prop44ColorIndex
 90
        5
102
RTVSPost2010Prop44ColorRGB
 90
      255
102
RTVSPost2010PropOp44
 70
     1
102
RTVSPost2010Prop45
280
     0
102
RTVSPost2010PropOp45
 70
     1
102
RTVSPost2010Prop46
 90
       50
102
RTVSPost2010PropOp46
 70
     1
102
RTVSPost2010Prop47
 90
       50
102
RTVSPost2010PropOp47
 70
     1
102
RTVSPost2010Prop48
 90
       50
102
RTVSPost2010PropOp48
 70
     1
102
RTVSPost2010Prop49
280
     0
102
RTVSPost2010PropOp49
 70
     1
102
RTVSPost2010Prop50
 90
       50
102
RTVSPost2010PropOp50
 70
     1
102
RTVSPost2010Prop51ColorIndex
 90
      256
102
RTVSPost2010Prop51ColorRGB
 90
-16777216
102
RTVSPost2010PropOp51
 70
     0
102
RTVSPost2010Prop52
140
1.0
102
RTVSPost2010PropOp52
 70
     0
102
RTVSPost2010Prop53
 90
        2
102
RTVSPost2010PropOp53
 70
     1
102
RTVSPost2010Prop54
  1
strokes_ogs.tif
102
RTVSPost2010PropOp54
 70
     1
102
RTVSPost2010Prop55
280
     0
102
RTVSPost2010PropOp55
 70
     1
102
RTVSPost2010Prop56
140
1.0
102
RTVSPost2010PropOp56
 70
     1
102
RTVSPost2010Prop57
140
1.0
102
RTVSPost2010PropOp57
 70
     1
  0
XRECORD
  5
3C7
102
{ACAD_REACTORS
330
3C6
102
}
330
3C6
100
AcDbXrecord
280
     1
102
RTVSPropertyOp0
 70
     1
102
RTVSPropertyOp1
 70
     1
102
RTVSPropertyOp2
 70
     1
102
RTVSPropertyOp3
 70
     1
102
RTVSPropertyOp4
 70
     1
102
RTVSPropertyOp5
 70
     1
102
RTVSPropertyOp6
 70
     1
102
RTVSPropertyOp7
 70
     1
102
RTVSPropertyOp8
 70
     1
102
RTVSPropertyOp9
 70
     1
102
RTVSPropertyOp10
 70
     1
102
RTVSPropertyOp11
 70
     1
102
RTVSPropertyOp12
 70
     1
102
RTVSPropertyOp13
 70
     1
102
RTVSPropertyOp14
 70
     1
102
RTVSPropertyOp15
 70
     1
102
RTVSPropertyOp16
 70
     1
102
RTVSPropertyOp17
 70
     1
102
RTVSPropertyOp18
 70
     1
102
RTVSPropertyOp19
 70
     1
102
RTVSPropertyOp20
 70
     1
102
RTVSPropertyOp21
 70
     1
102
RTVSPropertyOp22
 70
     1
102
RTVSPropertyOp23
 70
     1
102
RTVSPropertyOp24
 70
     1
102
RTVSPropertyOp25
 70
     1
102
RTVSPropertyOp26
 70
     1
102
RTVSPropertyOp27
 70
     1
102
RTVSPropertyOp28
 70
     1
102
RTVSPropertyOp29
 70
     1
102
RTVSPropertyOp30
 70
     1
102
RTVSPropertyOp31
 70
     1
102
RTVSPropertyOp32
 70
     1
102
RTVSPropertyOp33
 70
     1
102
RTVSPropertyOp34
 70
     1
102
RTVSPropertyOp35
 70
     1
102
RTVSPropertyOp36
 70
     1
102
RTVSPropertyOp37
 70
     1
102
RTVSPropertyOp38
 70
     1
102
RTVSPropertyOp39
 70
     1
102
RTVSPropertyOp40
 70
     1
102
RTVSPropertyOp41
 70
     1
102
RTVSPropertyOp42
 70
     1
102
RTVSPropertyOp43
 70
     1
102
RTVSPropertyOp44
 70
     1
102
RTVSPropertyOp45
 70
     1
102
RTVSPropertyOp46
 70
     1
102
RTVSPropertyOp47
 70
     1
102
RTVSPropertyOp48
 70
     1
102
RTVSPropertyOp49
 70
     1
102
RTVSPropertyOp50
 70
     1
102
RTVSPropertyOp51
 70
     0
102
RTVSPropertyOp52
 70
     0
102
RTVSPropertyOp53
 70
     1
102
RTVSPropertyOp54
 70
     1
102
RTVSPropertyOp55
 70
     1
102
RTVSPropertyOp56
 70
     1
102
RTVSPropertyOp57
 70
     1
102
RTVSPost2010Prop28
280
     0
102
RTVSPost2010PropOp28
 70
     1
102
RTVSPost2010Prop29
280
     1
102
RTVSPost2010PropOp29
 70
     1
102
RTVSPost2010Prop30
280
     1
102
RTVSPost2010PropOp30
 70
     1
102
RTVSPost2010Prop31
280
     0
102
RTVSPost2010PropOp31
 70
     1
102
RTVSPost2010Prop32
280
     0
102
RTVSPost2010PropOp32
 70
     1
102
RTVSPost2010Prop33
280
     0
102
RTVSPost2010PropOp33
 70
     1
102
RTVSPost2010Prop34
280
     0
102
RTVSPost2010PropOp34
 70
     1
102
RTVSPost2010Prop35
280
     0
102
RTVSPost2010PropOp35
 70
     1
102
RTVSPost2010Prop36
280
     0
102
RTVSPost2010PropOp36
 70
     1
102
RTVSPost2010Prop37
 90
       50
102
RTVSPost2010PropOp37
 70
     1
102
RTVSPost2010Prop38
140
0.0
102
RTVSPost2010PropOp38
 70
     1
102
RTVSPost2010Prop39
140
1.0
102
RTVSPost2010PropOp39
 70
     1
102
RTVSPost2010Prop40
 90
        0
102
RTVSPost2010PropOp40
 70
     1
102
RTVSPost2010Prop41ColorIndex
 90
       18
102
RTVSPost2010Prop41ColorRGB
 90
        0
102
RTVSPost2010PropOp41
 70
     1
102
RTVSPost2010Prop42
 90
       50
102
RTVSPost2010PropOp42
 70
     1
102
RTVSPost2010Prop43
 90
        3
102
RTVSPost2010PropOp43
 70
     1
102
RTVSPost2010Prop44ColorIndex
 90
        5
102
RTVSPost2010Prop44ColorRGB
 90
      255
102
RTVSPost2010PropOp44
 70
     1
102
RTVSPost2010Prop45
280
     0
102
RTVSPost2010PropOp45
 70
     1
102
RTVSPost2010Prop46
 90
       50
102
RTVSPost2010PropOp46
 70
     1
102
RTVSPost2010Prop47
 90
       50
102
RTVSPost2010PropOp47
 70
     1
102
RTVSPost2010Prop48
 90
       50
102
RTVSPost2010PropOp48
 70
     1
102
RTVSPost2010Prop49
280
     0
102
RTVSPost2010PropOp49
 70
     1
102
RTVSPost2010Prop50
 90
       50
102
RTVSPost2010PropOp50
 70
     1
102
RTVSPost2010Prop51ColorIndex
 90
      256
102
RTVSPost2010Prop51ColorRGB
 90
-16777216
102
RTVSPost2010PropOp51
 70
     0
102
RTVSPost2010Prop52
140
1.0
102
RTVSPost2010PropOp52
 70
     0
102
RTVSPost2010Prop53
 90
        2
102
RTVSPost2010PropOp53
 70
     1
102
RTVSPost2010Prop54
  1
strokes_ogs.tif
102
RTVSPost2010PropOp54
 70
     1
102
RTVSPost2010Prop55
280
     0
102
RTVSPost2010PropOp55
 70
     1
102
RTVSPost2010Prop56
140
1.0
102
RTVSPost2010PropOp56
 70
     1
102
RTVSPost2010Prop57
140
1.0
102
RTVSPost2010PropOp57
 70
     1
  0
XRECORD
  5
3C1
102
{ACAD_REACTORS
330
3C0
102
}
330
3C0
100
AcDbXrecord
280
     1
102
RTVSPropertyOp0
 70
     1
102
RTVSPropertyOp1
 70
     1
102
RTVSPropertyOp2
 70
     1
102
RTVSPropertyOp3
 70
     1
102
RTVSPropertyOp4
 70
     1
102
RTVSPropertyOp5
 70
     1
102
RTVSPropertyOp6
 70
     1
102
RTVSPropertyOp7
 70
     1
102
RTVSPropertyOp8
 70
     1
102
RTVSPropertyOp9
 70
     1
102
RTVSPropertyOp10
 70
     1
102
RTVSPropertyOp11
 70
     1
102
RTVSPropertyOp12
 70
     1
102
RTVSPropertyOp13
 70
     1
102
RTVSPropertyOp14
 70
     1
102
RTVSPropertyOp15
 70
     1
102
RTVSPropertyOp16
 70
     1
102
RTVSPropertyOp17
 70
     1
102
RTVSPropertyOp18
 70
     1
102
RTVSPropertyOp19
 70
     1
102
RTVSPropertyOp20
 70
     1
102
RTVSPropertyOp21
 70
     1
102
RTVSPropertyOp22
 70
     1
102
RTVSPropertyOp23
 70
     1
102
RTVSPropertyOp24
 70
     1
102
RTVSPropertyOp25
 70
     1
102
RTVSPropertyOp26
 70
     1
102
RTVSPropertyOp27
 70
     1
102
RTVSPropertyOp28
 70
     1
102
RTVSPropertyOp29
 70
     1
102
RTVSPropertyOp30
 70
     1
102
RTVSPropertyOp31
 70
     1
102
RTVSPropertyOp32
 70
     1
102
RTVSPropertyOp33
 70
     1
102
RTVSPropertyOp34
 70
     1
102
RTVSPropertyOp35
 70
     1
102
RTVSPropertyOp36
 70
     1
102
RTVSPropertyOp37
 70
     1
102
RTVSPropertyOp38
 70
     1
102
RTVSPropertyOp39
 70
     1
102
RTVSPropertyOp40
 70
     1
102
RTVSPropertyOp41
 70
     1
102
RTVSPropertyOp42
 70
     1
102
RTVSPropertyOp43
 70
     1
102
RTVSPropertyOp44
 70
     1
102
RTVSPropertyOp45
 70
     1
102
RTVSPropertyOp46
 70
     1
102
RTVSPropertyOp47
 70
     1
102
RTVSPropertyOp48
 70
     1
102
RTVSPropertyOp49
 70
     1
102
RTVSPropertyOp50
 70
     1
102
RTVSPropertyOp51
 70
     0
102
RTVSPropertyOp52
 70
     0
102
RTVSPropertyOp53
 70
     1
102
RTVSPropertyOp54
 70
     1
102
RTVSPropertyOp55
 70
     1
102
RTVSPropertyOp56
 70
     1
102
RTVSPropertyOp57
 70
     1
102
RTVSPost2010Prop28
280
     0
102
RTVSPost2010PropOp28
 70
     1
102
RTVSPost2010Prop29
280
     1
102
RTVSPost2010PropOp29
 70
     1
102
RTVSPost2010Prop30
280
     1
102
RTVSPost2010PropOp30
 70
     1
102
RTVSPost2010Prop31
280
     0
102
RTVSPost2010PropOp31
 70
     1
102
RTVSPost2010Prop32
280
     0
102
RTVSPost2010PropOp32
 70
     1
102
RTVSPost2010Prop33
280
     0
102
RTVSPost2010PropOp33
 70
     1
102
RTVSPost2010Prop34
280
     0
102
RTVSPost2010PropOp34
 70
     1
102
RTVSPost2010Prop35
280
     0
102
RTVSPost2010PropOp35
 70
     1
102
RTVSPost2010Prop36
280
     0
102
RTVSPost2010PropOp36
 70
     1
102
RTVSPost2010Prop37
 90
       50
102
RTVSPost2010PropOp37
 70
     1
102
RTVSPost2010Prop38
140
0.0
102
RTVSPost2010PropOp38
 70
     1
102
RTVSPost2010Prop39
140
1.0
102
RTVSPost2010PropOp39
 70
     1
102
RTVSPost2010Prop40
 90
        0
102
RTVSPost2010PropOp40
 70
     1
102
RTVSPost2010Prop41ColorIndex
 90
       18
102
RTVSPost2010Prop41ColorRGB
 90
        0
102
RTVSPost2010PropOp41
 70
     1
102
RTVSPost2010Prop42
 90
       50
102
RTVSPost2010PropOp42
 70
     1
102
RTVSPost2010Prop43
 90
        3
102
RTVSPost2010PropOp43
 70
     1
102
RTVSPost2010Prop44ColorIndex
 90
        5
102
RTVSPost2010Prop44ColorRGB
 90
      255
102
RTVSPost2010PropOp44
 70
     1
102
RTVSPost2010Prop45
280
     0
102
RTVSPost2010PropOp45
 70
     1
102
RTVSPost2010Prop46
 90
       50
102
RTVSPost2010PropOp46
 70
     1
102
RTVSPost2010Prop47
 90
       50
102
RTVSPost2010PropOp47
 70
     1
102
RTVSPost2010Prop48
 90
       50
102
RTVSPost2010PropOp48
 70
     1
102
RTVSPost2010Prop49
280
     0
102
RTVSPost2010PropOp49
 70
     1
102
RTVSPost2010Prop50
 90
       50
102
RTVSPost2010PropOp50
 70
     1
102
RTVSPost2010Prop51ColorIndex
 90
      256
102
RTVSPost2010Prop51ColorRGB
 90
-16777216
102
RTVSPost2010PropOp51
 70
     0
102
RTVSPost2010Prop52
140
1.0
102
RTVSPost2010PropOp52
 70
     0
102
RTVSPost2010Prop53
 90
        2
102
RTVSPost2010PropOp53
 70
     1
102
RTVSPost2010Prop54
  1
strokes_ogs.tif
102
RTVSPost2010PropOp54
 70
     1
102
RTVSPost2010Prop55
280
     0
102
RTVSPost2010PropOp55
 70
     1
102
RTVSPost2010Prop56
140
1.0
102
RTVSPost2010PropOp56
 70
     1
102
RTVSPost2010Prop57
140
1.0
102
RTVSPost2010PropOp57
 70
     1
  0
XRECORD
  5
3C3
102
{ACAD_REACTORS
330
3C2
102
}
330
3C2
100
AcDbXrecord
280
     1
102
RTVSPropertyOp0
 70
     1
102
RTVSPropertyOp1
 70
     1
102
RTVSPropertyOp2
 70
     1
102
RTVSPropertyOp3
 70
     1
102
RTVSPropertyOp4
 70
     1
102
RTVSPropertyOp5
 70
     1
102
RTVSPropertyOp6
 70
     1
102
RTVSPropertyOp7
 70
     1
102
RTVSPropertyOp8
 70
     1
102
RTVSPropertyOp9
 70
     1
102
RTVSPropertyOp10
 70
     1
102
RTVSPropertyOp11
 70
     1
102
RTVSPropertyOp12
 70
     1
102
RTVSPropertyOp13
 70
     1
102
RTVSPropertyOp14
 70
     1
102
RTVSPropertyOp15
 70
     1
102
RTVSPropertyOp16
 70
     1
102
RTVSPropertyOp17
 70
     1
102
RTVSPropertyOp18
 70
     1
102
RTVSPropertyOp19
 70
     1
102
RTVSPropertyOp20
 70
     1
102
RTVSPropertyOp21
 70
     1
102
RTVSPropertyOp22
 70
     1
102
RTVSPropertyOp23
 70
     1
102
RTVSPropertyOp24
 70
     1
102
RTVSPropertyOp25
 70
     1
102
RTVSPropertyOp26
 70
     1
102
RTVSPropertyOp27
 70
     1
102
RTVSPropertyOp28
 70
     1
102
RTVSPropertyOp29
 70
     1
102
RTVSPropertyOp30
 70
     1
102
RTVSPropertyOp31
 70
     1
102
RTVSPropertyOp32
 70
     1
102
RTVSPropertyOp33
 70
     1
102
RTVSPropertyOp34
 70
     1
102
RTVSPropertyOp35
 70
     1
102
RTVSPropertyOp36
 70
     1
102
RTVSPropertyOp37
 70
     1
102
RTVSPropertyOp38
 70
     1
102
RTVSPropertyOp39
 70
     1
102
RTVSPropertyOp40
 70
     1
102
RTVSPropertyOp41
 70
     1
102
RTVSPropertyOp42
 70
     1
102
RTVSPropertyOp43
 70
     1
102
RTVSPropertyOp44
 70
     1
102
RTVSPropertyOp45
 70
     1
102
RTVSPropertyOp46
 70
     1
102
RTVSPropertyOp47
 70
     1
102
RTVSPropertyOp48
 70
     1
102
RTVSPropertyOp49
 70
     1
102
RTVSPropertyOp50
 70
     1
102
RTVSPropertyOp51
 70
     0
102
RTVSPropertyOp52
 70
     0
102
RTVSPropertyOp53
 70
     1
102
RTVSPropertyOp54
 70
     1
102
RTVSPropertyOp55
 70
     1
102
RTVSPropertyOp56
 70
     1
102
RTVSPropertyOp57
 70
     1
102
RTVSPost2010Prop28
280
     0
102
RTVSPost2010PropOp28
 70
     1
102
RTVSPost2010Prop29
280
     1
102
RTVSPost2010PropOp29
 70
     1
102
RTVSPost2010Prop30
280
     1
102
RTVSPost2010PropOp30
 70
     1
102
RTVSPost2010Prop31
280
     0
102
RTVSPost2010PropOp31
 70
     1
102
RTVSPost2010Prop32
280
     0
102
RTVSPost2010PropOp32
 70
     1
102
RTVSPost2010Prop33
280
     0
102
RTVSPost2010PropOp33
 70
     1
102
RTVSPost2010Prop34
280
     0
102
RTVSPost2010PropOp34
 70
     1
102
RTVSPost2010Prop35
280
     0
102
RTVSPost2010PropOp35
 70
     1
102
RTVSPost2010Prop36
280
     0
102
RTVSPost2010PropOp36
 70
     1
102
RTVSPost2010Prop37
 90
       50
102
RTVSPost2010PropOp37
 70
     1
102
RTVSPost2010Prop38
140
0.0
102
RTVSPost2010PropOp38
 70
     1
102
RTVSPost2010Prop39
140
1.0
102
RTVSPost2010PropOp39
 70
     1
102
RTVSPost2010Prop40
 90
        0
102
RTVSPost2010PropOp40
 70
     1
102
RTVSPost2010Prop41ColorIndex
 90
       18
102
RTVSPost2010Prop41ColorRGB
 90
        0
102
RTVSPost2010PropOp41
 70
     1
102
RTVSPost2010Prop42
 90
       50
102
RTVSPost2010PropOp42
 70
     1
102
RTVSPost2010Prop43
 90
        3
102
RTVSPost2010PropOp43
 70
     1
102
RTVSPost2010Prop44ColorIndex
 90
        5
102
RTVSPost2010Prop44ColorRGB
 90
      255
102
RTVSPost2010PropOp44
 70
     1
102
RTVSPost2010Prop45
280
     0
102
RTVSPost2010PropOp45
 70
     1
102
RTVSPost2010Prop46
 90
       50
102
RTVSPost2010PropOp46
 70
     1
102
RTVSPost2010Prop47
 90
       50
102
RTVSPost2010PropOp47
 70
     1
102
RTVSPost2010Prop48
 90
       50
102
RTVSPost2010PropOp48
 70
     1
102
RTVSPost2010Prop49
280
     0
102
RTVSPost2010PropOp49
 70
     1
102
RTVSPost2010Prop50
 90
       50
102
RTVSPost2010PropOp50
 70
     1
102
RTVSPost2010Prop51ColorIndex
 90
      256
102
RTVSPost2010Prop51ColorRGB
 90
-16777216
102
RTVSPost2010PropOp51
 70
     0
102
RTVSPost2010Prop52
140
1.0
102
RTVSPost2010PropOp52
 70
     0
102
RTVSPost2010Prop53
 90
        2
102
RTVSPost2010PropOp53
 70
     1
102
RTVSPost2010Prop54
  1
strokes_ogs.tif
102
RTVSPost2010PropOp54
 70
     1
102
RTVSPost2010Prop55
280
     0
102
RTVSPost2010PropOp55
 70
     1
102
RTVSPost2010Prop56
140
1.0
102
RTVSPost2010PropOp56
 70
     1
102
RTVSPost2010Prop57
140
1.0
102
RTVSPost2010PropOp57
 70
     1
  0
XRECORD
  5
3B3
102
{ACAD_REACTORS
330
3B2
102
}
330
3B2
100
AcDbXrecord
280
     1
102
RTVSPropertyOp0
 70
     1
102
RTVSPropertyOp1
 70
     1
102
RTVSPropertyOp2
 70
     1
102
RTVSPropertyOp3
 70
     1
102
RTVSPropertyOp4
 70
     1
102
RTVSPropertyOp5
 70
     1
102
RTVSPropertyOp6
 70
     1
102
RTVSPropertyOp7
 70
     1
102
RTVSPropertyOp8
 70
     1
102
RTVSPropertyOp9
 70
     1
102
RTVSPropertyOp10
 70
     1
102
RTVSPropertyOp11
 70
     1
102
RTVSPropertyOp12
 70
     1
102
RTVSPropertyOp13
 70
     1
102
RTVSPropertyOp14
 70
     1
102
RTVSPropertyOp15
 70
     1
102
RTVSPropertyOp16
 70
     1
102
RTVSPropertyOp17
 70
     1
102
RTVSPropertyOp18
 70
     1
102
RTVSPropertyOp19
 70
     1
102
RTVSPropertyOp20
 70
     1
102
RTVSPropertyOp21
 70
     1
102
RTVSPropertyOp22
 70
     1
102
RTVSPropertyOp23
 70
     1
102
RTVSPropertyOp24
 70
     1
102
RTVSPropertyOp25
 70
     1
102
RTVSPropertyOp26
 70
     1
102
RTVSPropertyOp27
 70
     1
102
RTVSPropertyOp28
 70
     1
102
RTVSPropertyOp29
 70
     1
102
RTVSPropertyOp30
 70
     1
102
RTVSPropertyOp31
 70
     1
102
RTVSPropertyOp32
 70
     1
102
RTVSPropertyOp33
 70
     1
102
RTVSPropertyOp34
 70
     1
102
RTVSPropertyOp35
 70
     1
102
RTVSPropertyOp36
 70
     1
102
RTVSPropertyOp37
 70
     1
102
RTVSPropertyOp38
 70
     1
102
RTVSPropertyOp39
 70
     1
102
RTVSPropertyOp40
 70
     1
102
RTVSPropertyOp41
 70
     1
102
RTVSPropertyOp42
 70
     1
102
RTVSPropertyOp43
 70
     1
102
RTVSPropertyOp44
 70
     1
102
RTVSPropertyOp45
 70
     1
102
RTVSPropertyOp46
 70
     1
102
RTVSPropertyOp47
 70
     1
102
RTVSPropertyOp48
 70
     1
102
RTVSPropertyOp49
 70
     1
102
RTVSPropertyOp50
 70
     1
102
RTVSPropertyOp51
 70
     0
102
RTVSPropertyOp52
 70
     0
102
RTVSPropertyOp53
 70
     1
102
RTVSPropertyOp54
 70
     1
102
RTVSPropertyOp55
 70
     1
102
RTVSPropertyOp56
 70
     1
102
RTVSPropertyOp57
 70
     1
102
RTVSPost2010Prop28
280
     0
102
RTVSPost2010PropOp28
 70
     1
102
RTVSPost2010Prop29
280
     1
102
RTVSPost2010PropOp29
 70
     1
102
RTVSPost2010Prop30
280
     1
102
RTVSPost2010PropOp30
 70
     1
102
RTVSPost2010Prop31
280
     0
102
RTVSPost2010PropOp31
 70
     1
102
RTVSPost2010Prop32
280
     0
102
RTVSPost2010PropOp32
 70
     1
102
RTVSPost2010Prop33
280
     0
102
RTVSPost2010PropOp33
 70
     1
102
RTVSPost2010Prop34
280
     0
102
RTVSPost2010PropOp34
 70
     1
102
RTVSPost2010Prop35
280
     0
102
RTVSPost2010PropOp35
 70
     1
102
RTVSPost2010Prop36
280
     0
102
RTVSPost2010PropOp36
 70
     1
102
RTVSPost2010Prop37
 90
       50
102
RTVSPost2010PropOp37
 70
     1
102
RTVSPost2010Prop38
140
0.0
102
RTVSPost2010PropOp38
 70
     1
102
RTVSPost2010Prop39
140
1.0
102
RTVSPost2010PropOp39
 70
     1
102
RTVSPost2010Prop40
 90
        0
102
RTVSPost2010PropOp40
 70
     1
102
RTVSPost2010Prop41ColorIndex
 90
       18
102
RTVSPost2010Prop41ColorRGB
 90
        0
102
RTVSPost2010PropOp41
 70
     1
102
RTVSPost2010Prop42
 90
       50
102
RTVSPost2010PropOp42
 70
     1
102
RTVSPost2010Prop43
 90
        3
102
RTVSPost2010PropOp43
 70
     1
102
RTVSPost2010Prop44ColorIndex
 90
        5
102
RTVSPost2010Prop44ColorRGB
 90
      255
102
RTVSPost2010PropOp44
 70
     1
102
RTVSPost2010Prop45
280
     0
102
RTVSPost2010PropOp45
 70
     1
102
RTVSPost2010Prop46
 90
       50
102
RTVSPost2010PropOp46
 70
     1
102
RTVSPost2010Prop47
 90
       50
102
RTVSPost2010PropOp47
 70
     1
102
RTVSPost2010Prop48
 90
       50
102
RTVSPost2010PropOp48
 70
     1
102
RTVSPost2010Prop49
280
     0
102
RTVSPost2010PropOp49
 70
     1
102
RTVSPost2010Prop50
 90
       50
102
RTVSPost2010PropOp50
 70
     1
102
RTVSPost2010Prop51ColorIndex
 90
      256
102
RTVSPost2010Prop51ColorRGB
 90
-16777216
102
RTVSPost2010PropOp51
 70
     0
102
RTVSPost2010Prop52
140
1.0
102
RTVSPost2010PropOp52
 70
     0
102
RTVSPost2010Prop53
 90
        2
102
RTVSPost2010PropOp53
 70
     1
102
RTVSPost2010Prop54
  1
strokes_ogs.tif
102
RTVSPost2010PropOp54
 70
     1
102
RTVSPost2010Prop55
280
     0
102
RTVSPost2010PropOp55
 70
     1
102
RTVSPost2010Prop56
140
1.0
102
RTVSPost2010PropOp56
 70
     1
102
RTVSPost2010Prop57
140
1.0
102
RTVSPost2010PropOp57
 70
     1
  0
XRECORD
  5
3A5
102
{ACAD_REACTORS
330
3A4
102
}
330
3A4
100
AcDbXrecord
280
     1
102
RTVSPropertyOp0
 70
     1
102
RTVSPropertyOp1
 70
     1
102
RTVSPropertyOp2
 70
     1
102
RTVSPropertyOp3
 70
     1
102
RTVSPropertyOp4
 70
     1
102
RTVSPropertyOp5
 70
     1
102
RTVSPropertyOp6
 70
     1
102
RTVSPropertyOp7
 70
     1
102
RTVSPropertyOp8
 70
     1
102
RTVSPropertyOp9
 70
     1
102
RTVSPropertyOp10
 70
     1
102
RTVSPropertyOp11
 70
     1
102
RTVSPropertyOp12
 70
     1
102
RTVSPropertyOp13
 70
     1
102
RTVSPropertyOp14
 70
     1
102
RTVSPropertyOp15
 70
     1
102
RTVSPropertyOp16
 70
     1
102
RTVSPropertyOp17
 70
     1
102
RTVSPropertyOp18
 70
     1
102
RTVSPropertyOp19
 70
     1
102
RTVSPropertyOp20
 70
     1
102
RTVSPropertyOp21
 70
     1
102
RTVSPropertyOp22
 70
     1
102
RTVSPropertyOp23
 70
     1
102
RTVSPropertyOp24
 70
     1
102
RTVSPropertyOp25
 70
     1
102
RTVSPropertyOp26
 70
     1
102
RTVSPropertyOp27
 70
     1
102
RTVSPropertyOp28
 70
     1
102
RTVSPropertyOp29
 70
     1
102
RTVSPropertyOp30
 70
     1
102
RTVSPropertyOp31
 70
     1
102
RTVSPropertyOp32
 70
     1
102
RTVSPropertyOp33
 70
     1
102
RTVSPropertyOp34
 70
     1
102
RTVSPropertyOp35
 70
     1
102
RTVSPropertyOp36
 70
     1
102
RTVSPropertyOp37
 70
     1
102
RTVSPropertyOp38
 70
     1
102
RTVSPropertyOp39
 70
     1
102
RTVSPropertyOp40
 70
     1
102
RTVSPropertyOp41
 70
     1
102
RTVSPropertyOp42
 70
     1
102
RTVSPropertyOp43
 70
     1
102
RTVSPropertyOp44
 70
     1
102
RTVSPropertyOp45
 70
     1
102
RTVSPropertyOp46
 70
     1
102
RTVSPropertyOp47
 70
     1
102
RTVSPropertyOp48
 70
     1
102
RTVSPropertyOp49
 70
     1
102
RTVSPropertyOp50
 70
     1
102
RTVSPropertyOp51
 70
     0
102
RTVSPropertyOp52
 70
     0
102
RTVSPropertyOp53
 70
     1
102
RTVSPropertyOp54
 70
     1
102
RTVSPropertyOp55
 70
     1
102
RTVSPropertyOp56
 70
     1
102
RTVSPropertyOp57
 70
     1
102
RTVSPost2010Prop28
280
     0
102
RTVSPost2010PropOp28
 70
     1
102
RTVSPost2010Prop29
280
     1
102
RTVSPost2010PropOp29
 70
     1
102
RTVSPost2010Prop30
280
     1
102
RTVSPost2010PropOp30
 70
     1
102
RTVSPost2010Prop31
280
     0
102
RTVSPost2010PropOp31
 70
     1
102
RTVSPost2010Prop32
280
     0
102
RTVSPost2010PropOp32
 70
     1
102
RTVSPost2010Prop33
280
     0
102
RTVSPost2010PropOp33
 70
     1
102
RTVSPost2010Prop34
280
     0
102
RTVSPost2010PropOp34
 70
     1
102
RTVSPost2010Prop35
280
     0
102
RTVSPost2010PropOp35
 70
     1
102
RTVSPost2010Prop36
280
     0
102
RTVSPost2010PropOp36
 70
     1
102
RTVSPost2010Prop37
 90
       50
102
RTVSPost2010PropOp37
 70
     1
102
RTVSPost2010Prop38
140
0.0
102
RTVSPost2010PropOp38
 70
     1
102
RTVSPost2010Prop39
140
1.0
102
RTVSPost2010PropOp39
 70
     1
102
RTVSPost2010Prop40
 90
        0
102
RTVSPost2010PropOp40
 70
     1
102
RTVSPost2010Prop41ColorIndex
 90
       18
102
RTVSPost2010Prop41ColorRGB
 90
        0
102
RTVSPost2010PropOp41
 70
     1
102
RTVSPost2010Prop42
 90
       50
102
RTVSPost2010PropOp42
 70
     1
102
RTVSPost2010Prop43
 90
        3
102
RTVSPost2010PropOp43
 70
     1
102
RTVSPost2010Prop44ColorIndex
 90
        5
102
RTVSPost2010Prop44ColorRGB
 90
      255
102
RTVSPost2010PropOp44
 70
     1
102
RTVSPost2010Prop45
280
     0
102
RTVSPost2010PropOp45
 70
     1
102
RTVSPost2010Prop46
 90
       50
102
RTVSPost2010PropOp46
 70
     1
102
RTVSPost2010Prop47
 90
       50
102
RTVSPost2010PropOp47
 70
     1
102
RTVSPost2010Prop48
 90
       50
102
RTVSPost2010PropOp48
 70
     1
102
RTVSPost2010Prop49
280
     0
102
RTVSPost2010PropOp49
 70
     1
102
RTVSPost2010Prop50
 90
       50
102
RTVSPost2010PropOp50
 70
     1
102
RTVSPost2010Prop51ColorIndex
 90
      256
102
RTVSPost2010Prop51ColorRGB
 90
-16777216
102
RTVSPost2010PropOp51
 70
     0
102
RTVSPost2010Prop52
140
1.0
102
RTVSPost2010PropOp52
 70
     0
102
RTVSPost2010Prop53
 90
        2
102
RTVSPost2010PropOp53
 70
     1
102
RTVSPost2010Prop54
  1
strokes_ogs.tif
102
RTVSPost2010PropOp54
 70
     1
102
RTVSPost2010Prop55
280
     0
102
RTVSPost2010PropOp55
 70
     1
102
RTVSPost2010Prop56
140
1.0
102
RTVSPost2010PropOp56
 70
     1
102
RTVSPost2010Prop57
140
1.0
102
RTVSPost2010PropOp57
 70
     1
  0
XRECORD
  5
3C5
102
{ACAD_REACTORS
330
3C4
102
}
330
3C4
100
AcDbXrecord
280
     1
102
RTVSPropertyOp0
 70
     1
102
RTVSPropertyOp1
 70
     1
102
RTVSPropertyOp2
 70
     1
102
RTVSPropertyOp3
 70
     1
102
RTVSPropertyOp4
 70
     1
102
RTVSPropertyOp5
 70
     1
102
RTVSPropertyOp6
 70
     1
102
RTVSPropertyOp7
 70
     1
102
RTVSPropertyOp8
 70
     1
102
RTVSPropertyOp9
 70
     1
102
RTVSPropertyOp10
 70
     1
102
RTVSPropertyOp11
 70
     1
102
RTVSPropertyOp12
 70
     1
102
RTVSPropertyOp13
 70
     1
102
RTVSPropertyOp14
 70
     1
102
RTVSPropertyOp15
 70
     1
102
RTVSPropertyOp16
 70
     1
102
RTVSPropertyOp17
 70
     1
102
RTVSPropertyOp18
 70
     1
102
RTVSPropertyOp19
 70
     1
102
RTVSPropertyOp20
 70
     1
102
RTVSPropertyOp21
 70
     1
102
RTVSPropertyOp22
 70
     1
102
RTVSPropertyOp23
 70
     1
102
RTVSPropertyOp24
 70
     1
102
RTVSPropertyOp25
 70
     1
102
RTVSPropertyOp26
 70
     1
102
RTVSPropertyOp27
 70
     1
102
RTVSPropertyOp28
 70
     1
102
RTVSPropertyOp29
 70
     1
102
RTVSPropertyOp30
 70
     1
102
RTVSPropertyOp31
 70
     1
102
RTVSPropertyOp32
 70
     1
102
RTVSPropertyOp33
 70
     1
102
RTVSPropertyOp34
 70
     1
102
RTVSPropertyOp35
 70
     1
102
RTVSPropertyOp36
 70
     1
102
RTVSPropertyOp37
 70
     1
102
RTVSPropertyOp38
 70
     1
102
RTVSPropertyOp39
 70
     1
102
RTVSPropertyOp40
 70
     1
102
RTVSPropertyOp41
 70
     1
102
RTVSPropertyOp42
 70
     1
102
RTVSPropertyOp43
 70
     1
102
RTVSPropertyOp44
 70
     1
102
RTVSPropertyOp45
 70
     1
102
RTVSPropertyOp46
 70
     1
102
RTVSPropertyOp47
 70
     1
102
RTVSPropertyOp48
 70
     1
102
RTVSPropertyOp49
 70
     1
102
RTVSPropertyOp50
 70
     1
102
RTVSPropertyOp51
 70
     0
102
RTVSPropertyOp52
 70
     0
102
RTVSPropertyOp53
 70
     1
102
RTVSPropertyOp54
 70
     1
102
RTVSPropertyOp55
 70
     1
102
RTVSPropertyOp56
 70
     1
102
RTVSPropertyOp57
 70
     1
102
RTVSPost2010Prop28
280
     0
102
RTVSPost2010PropOp28
 70
     1
102
RTVSPost2010Prop29
280
     1
102
RTVSPost2010PropOp29
 70
     1
102
RTVSPost2010Prop30
280
     1
102
RTVSPost2010PropOp30
 70
     1
102
RTVSPost2010Prop31
280
     0
102
RTVSPost2010PropOp31
 70
     1
102
RTVSPost2010Prop32
280
     0
102
RTVSPost2010PropOp32
 70
     1
102
RTVSPost2010Prop33
280
     0
102
RTVSPost2010PropOp33
 70
     1
102
RTVSPost2010Prop34
280
     0
102
RTVSPost2010PropOp34
 70
     1
102
RTVSPost2010Prop35
280
     0
102
RTVSPost2010PropOp35
 70
     1
102
RTVSPost2010Prop36
280
     0
102
RTVSPost2010PropOp36
 70
     1
102
RTVSPost2010Prop37
 90
       50
102
RTVSPost2010PropOp37
 70
     1
102
RTVSPost2010Prop38
140
0.0
102
RTVSPost2010PropOp38
 70
     1
102
RTVSPost2010Prop39
140
1.0
102
RTVSPost2010PropOp39
 70
     1
102
RTVSPost2010Prop40
 90
        0
102
RTVSPost2010PropOp40
 70
     1
102
RTVSPost2010Prop41ColorIndex
 90
       18
102
RTVSPost2010Prop41ColorRGB
 90
        0
102
RTVSPost2010PropOp41
 70
     1
102
RTVSPost2010Prop42
 90
       50
102
RTVSPost2010PropOp42
 70
     1
102
RTVSPost2010Prop43
 90
        3
102
RTVSPost2010PropOp43
 70
     1
102
RTVSPost2010Prop44ColorIndex
 90
        5
102
RTVSPost2010Prop44ColorRGB
 90
      255
102
RTVSPost2010PropOp44
 70
     1
102
RTVSPost2010Prop45
280
     0
102
RTVSPost2010PropOp45
 70
     1
102
RTVSPost2010Prop46
 90
       50
102
RTVSPost2010PropOp46
 70
     1
102
RTVSPost2010Prop47
 90
       50
102
RTVSPost2010PropOp47
 70
     1
102
RTVSPost2010Prop48
 90
       50
102
RTVSPost2010PropOp48
 70
     1
102
RTVSPost2010Prop49
280
     0
102
RTVSPost2010PropOp49
 70
     1
102
RTVSPost2010Prop50
 90
       50
102
RTVSPost2010PropOp50
 70
     1
102
RTVSPost2010Prop51ColorIndex
 90
      256
102
RTVSPost2010Prop51ColorRGB
 90
-16777216
102
RTVSPost2010PropOp51
 70
     0
102
RTVSPost2010Prop52
140
1.0
102
RTVSPost2010PropOp52
 70
     0
102
RTVSPost2010Prop53
 90
        2
102
RTVSPost2010PropOp53
 70
     1
102
RTVSPost2010Prop54
  1
strokes_ogs.tif
102
RTVSPost2010PropOp54
 70
     1
102
RTVSPost2010Prop55
280
     0
102
RTVSPost2010PropOp55
 70
     1
102
RTVSPost2010Prop56
140
1.0
102
RTVSPost2010PropOp56
 70
     1
102
RTVSPost2010Prop57
140
1.0
102
RTVSPost2010PropOp57
 70
     1
  0
ENDSEC
  0
EOF
